daily pastebin goal
75%
SHARE
TWEET

Untitled

zgurvas Oct 17th, 2018 63 Never
Not a member of Pastebin yet? Sign Up, it unlocks many cool features!
  1. Полное имя                               : D:\Supergirl.S04.1080p.WEB-DL.LostFilm\Supergirl.S04E01.American.Alien.1080p.WEB-DL.LostFilm.mkv
  2. Формат                                   : Matroska
  3. Версия формата                           : Version 4
  4. Размер файла                             : 2,76 Гбайт
  5. Продолжительность                        : 42 м. 24 с.
  6. Общий поток                              : 9311 Кбит/сек
  7. Название фильма                          : Американский пришелец
  8. Дата кодирования                         : UTC 2018-10-17 05:41:46
  9. Программа кодирования                    : mkvmerge v26.0.0 ('In The Game') 32-bit
  10. Библиотека кодирования                   : libebml v1.3.6 + libmatroska v1.4.9
  11. Обложка                                  : Yes
  12. Attachments                              : cover.supergirl.jpg
  13.  
  14. Видео
  15. Идентификатор                            : 1
  16. Формат                                   : AVC
  17. Формат/Информация                        : Advanced Video Codec
  18. Профиль формата                          : High@L4
  19. Настройки формата                        : CABAC / 4 Ref Frames
  20. Параметр CABAC формата                   : Да
  21. Параметр RefFrames формата               : 4 кадра
  22. Идентификатор кодека                     : V_MPEG4/ISO/AVC
  23. Продолжительность                        : 42 м. 24 с.
  24. Битрейт                                  : 8283 Кбит/сек
  25. Ширина                                   : 1920 пикселей
  26. Высота                                   : 1080 пикселей
  27. Соотношение сторон                       : 16:9
  28. Режим частоты кадров                     : Постоянный
  29. Частота кадров                           : 23,976 (24000/1001) кадра/сек
  30. Цветовое пространство                    : YUV
  31. Субдискретизация насыщенности            : 4:2:0
  32. Битовая глубина                          : 8 бит
  33. Тип развёртки                            : Прогрессивная
  34. Бит/(Пиксели*Кадры)                      : 0.167
  35. Размер потока                            : 2,45 Гбайт (89%)
  36. Язык                                     : English
  37. Default                                  : Да
  38. Forced                                   : Нет
  39. Цветовой диапазон                        : Limited
  40. Основные цвета                           : BT.709
  41. Характеристики трансфера                 : BT.709
  42. Коэффициенты матрицы                     : BT.709
  43.  
  44. Аудио #1
  45. Идентификатор                            : 2
  46. Формат                                   : AC-3
  47. Формат/Информация                        : Audio Coding 3
  48. Коммерческое название                    : Dolby Digital
  49. Идентификатор кодека                     : A_AC3
  50. Продолжительность                        : 42 м. 23 с.
  51. Вид битрейта                             : Постоянный
  52. Битрейт                                  : 384 Кбит/сек
  53. Каналы                                   : 2 канала
  54. Channel layout                           : L R
  55. Частота                                  : 48,0 КГц
  56. Частота кадров                           : 31,250 кадров/сек (1536 SPF)
  57. Битовая глубина                          : 16 бит
  58. Метод сжатия                             : С потерями
  59. Размер потока                            : 116 Мбайт (4%)
  60. Заголовок                                : AC3 2.0 @ 384 kbps - MVO, LostFilm
  61. Язык                                     : Russian
  62. ServiceKind/String                       : Complete Main
  63. Default                                  : Да
  64. Forced                                   : Нет
  65.  
  66. Аудио #2
  67. Идентификатор                            : 3
  68. Формат                                   : E-AC-3
  69. Формат/Информация                        : Enhanced AC-3
  70. Коммерческое название                    : Dolby Digital Plus
  71. Идентификатор кодека                     : A_EAC3
  72. Продолжительность                        : 42 м. 24 с.
  73. Вид битрейта                             : Постоянный
  74. Битрейт                                  : 640 Кбит/сек
  75. Каналы                                   : 6 каналов
  76. Channel layout                           : L R C LFE Ls Rs
  77. Частота                                  : 48,0 КГц
  78. Частота кадров                           : 31,250 кадров/сек (1536 SPF)
  79. Метод сжатия                             : С потерями
  80. Размер потока                            : 194 Мбайт (7%)
  81. Заголовок                                : E-AC3 5.1 @ 640 kbps - Original
  82. Язык                                     : English
  83. ServiceKind/String                       : Complete Main
  84. Default                                  : Нет
  85. Forced                                   : Нет
  86.  
  87. Текст #1
  88. Идентификатор                            : 4
  89. Формат                                   : UTF-8
  90. Идентификатор кодека                     : S_TEXT/UTF8
  91. Идентификатор кодека/Информация          : UTF-8 Plain Text
  92. Продолжительность                        : 41 м. 16 с.
  93. Битрейт                                  : 87 бит/сек
  94. ElementCount                             : 750
  95. Размер потока                            : 26,4 Кбайт (0%)
  96. Заголовок                                : Full
  97. Язык                                     : English
  98. Default                                  : Нет
  99. Forced                                   : Нет
  100.  
  101. Текст #2
  102. Идентификатор                            : 5
  103. Формат                                   : UTF-8
  104. Идентификатор кодека                     : S_TEXT/UTF8
  105. Идентификатор кодека/Информация          : UTF-8 Plain Text
  106. Продолжительность                        : 41 м. 53 с.
  107. Битрейт                                  : 91 бит/сек
  108. ElementCount                             : 820
  109. Размер потока                            : 28,2 Кбайт (0%)
  110. Заголовок                                : Full SDH
  111. Язык                                     : English
  112. Default                                  : Нет
  113. Forced                                   : Нет
RAW Paste Data
We use cookies for various purposes including analytics. By continuing to use Pastebin, you agree to our use of cookies as described in the Cookies Policy. OK, I Understand
 
Top