Guest User

The.Natural.1984.REMUX.1080p.BluRay.AVC.DTS-HD.MA.5.1-LEGi0N

a guest
Jun 16th, 2019
38
Never
Not a member of Pastebin yet? Sign Up, it unlocks many cool features!
  1. General
  2. Unique ID                                : 210383292030982845612796151405288204556 (0x9E4659231E76E56183580809EAD1A90C)
  3. Complete name                            : The.Natural.1984.REMUX.1080p.BluRay.AVC.DTS-HD.MA.5.1-LEGi0N-Rakuvfinhel.mkv
  4. Format                                   : Matroska
  5. Format version                           : Version 4
  6. File size                                : 29.4 GiB
  7. Duration                                 : 2 h 17 min
  8. Overall bit rate mode                    : Variable
  9. Overall bit rate                         : 30.5 Mb/s
  10. Encoded date                             : UTC 2017-12-27 01:32:18
  11. Writing application                      : mkvmerge v15.0.0 ('Duel with the Devil') 64-bit
  12. Writing library                          : libebml v1.3.5 + libmatroska v1.4.5
  13.  
  14. Video
  15. ID                                       : 1
  16. Format                                   : AVC
  17. Format/Info                              : Advanced Video Codec
  18. Format profile                           : High@L4.1
  19. Format settings                          : CABAC / 2 Ref Frames
  20. Format settings, CABAC                   : Yes
  21. Format settings, Reference frames        : 2 frames
  22. Codec ID                                 : V_MPEG4/ISO/AVC
  23. Duration                                 : 2 h 17 min
  24. Bit rate mode                            : Variable
  25. Bit rate                                 : 26.8 Mb/s
  26. Width                                    : 1 920 pixels
  27. Height                                   : 1 080 pixels
  28. Display aspect ratio                     : 16:9
  29. Frame rate mode                          : Constant
  30. Frame rate                               : 23.976 (24000/1001) FPS
  31. Color space                              : YUV
  32. Chroma subsampling                       : 4:2:0
  33. Bit depth                                : 8 bits
  34. Scan type                                : Progressive
  35. Bits/(Pixel*Frame)                       : 0.538
  36. Stream size                              : 25.7 GiB (88%)
  37. Title                                    : MPEG-4 AVC Video / 26.7 Mbps / 1080p / 23.976 fps / 16:9 / High Profile 4.1
  38. Language                                 : English
  39. Default                                  : Yes
  40. Forced                                   : Yes
  41.  
  42. Audio
  43. ID                                       : 2
  44. Format                                   : DTS XLL
  45. Format/Info                              : Digital Theater Systems
  46. Commercial name                          : DTS-HD Master Audio
  47. Codec ID                                 : A_DTS
  48. Duration                                 : 2 h 17 min
  49. Bit rate mode                            : Variable
  50. Bit rate                                 : 3 621 kb/s
  51. Channel(s)                               : 6 channels
  52. Channel layout                           : C L R Ls Rs LFE
  53. Sampling rate                            : 48.0 kHz
  54. Frame rate                               : 93.750 FPS (512 SPF)
  55. Bit depth                                : 24 bits
  56. Compression mode                         : Lossless
  57. Stream size                              : 3.49 GiB (12%)
  58. Title                                    : English / DTS-HD Master Audio / 5.1 / 48 kHz / 3621 kbps / 24-bit (DTS Core: 5.1 / 48 kHz / 1509 kbps / 24-bit)
  59. Language                                 : English
  60. Default                                  : Yes
  61. Forced                                   : No
  62.  
  63. Text #1
  64. ID                                       : 3
  65. Format                                   : PGS
  66. Codec ID                                 : S_HDMV/PGS
  67. Codec ID/Info                            : Picture based subtitle format used on BDs/HD-DVDs
  68. Duration                                 : 2 h 9 min
  69. Bit rate                                 : 32.1 kb/s
  70. Count of elements                        : 3286
  71. Stream size                              : 29.8 MiB (0%)
  72. Title                                    : English
  73. Language                                 : English
  74. Default                                  : No
  75. Forced                                   : No
  76.  
  77. Text #2
  78. ID                                       : 4
  79. Format                                   : PGS
  80. Codec ID                                 : S_HDMV/PGS
  81. Codec ID/Info                            : Picture based subtitle format used on BDs/HD-DVDs
  82. Duration                                 : 2 h 14 min
  83. Bit rate                                 : 26.2 kb/s
  84. Count of elements                        : 3760
  85. Stream size                              : 25.2 MiB (0%)
  86. Title                                    : English (SDH)
  87. Language                                 : English
  88. Default                                  : No
  89. Forced                                   : No
  90.  
  91. Text #3
  92. ID                                       : 5
  93. Format                                   : PGS
  94. Codec ID                                 : S_HDMV/PGS
  95. Codec ID/Info                            : Picture based subtitle format used on BDs/HD-DVDs
  96. Duration                                 : 2 h 15 min
  97. Bit rate                                 : 25.7 kb/s
  98. Count of elements                        : 3314
  99. Stream size                              : 24.9 MiB (0%)
  100. Title                                    : French
  101. Language                                 : French
  102. Default                                  : No
  103. Forced                                   : No
  104.  
  105. Text #4
  106. ID                                       : 6
  107. Format                                   : PGS
  108. Codec ID                                 : S_HDMV/PGS
  109. Codec ID/Info                            : Picture based subtitle format used on BDs/HD-DVDs
  110. Duration                                 : 2 h 11 min
  111. Bit rate                                 : 31.4 kb/s
  112. Count of elements                        : 3352
  113. Stream size                              : 29.6 MiB (0%)
  114. Title                                    : Spanish
  115. Language                                 : Spanish
  116. Default                                  : No
  117. Forced                                   : No
  118.  
  119. Text #5
  120. ID                                       : 7
  121. Format                                   : PGS
  122. Codec ID                                 : S_HDMV/PGS
  123. Codec ID/Info                            : Picture based subtitle format used on BDs/HD-DVDs
  124. Duration                                 : 2 h 11 min
  125. Bit rate                                 : 27.1 kb/s
  126. Count of elements                        : 3346
  127. Stream size                              : 25.6 MiB (0%)
  128. Title                                    : Portuguese
  129. Language                                 : Portuguese
  130. Default                                  : No
  131. Forced                                   : No
  132.  
  133. Menu
  134. 00:00:00.000                             : en:00:00:00.000
  135. 00:07:08.970                             : en:00:07:08.970
  136. 00:19:12.902                             : en:00:19:12.902
  137. 00:26:46.522                             : en:00:26:46.522
  138. 00:34:30.151                             : en:00:34:30.151
  139. 00:45:35.858                             : en:00:45:35.858
  140. 00:54:01.155                             : en:00:54:01.155
  141. 00:59:28.273                             : en:00:59:28.273
  142. 01:11:32.747                             : en:01:11:32.747
  143. 01:16:02.641                             : en:01:16:02.641
  144. 01:23:11.778                             : en:01:23:11.778
  145. 01:30:39.934                             : en:01:30:39.934
  146. 01:41:48.477                             : en:01:41:48.477
  147. 01:51:28.974                             : en:01:51:28.974
  148. 01:57:20.700                             : en:01:57:20.700
  149. 02:06:20.156                             : en:02:06:20.156
RAW Paste Data