Guest User

Untitled

a guest
Jun 6th, 2021
61
Never
Not a member of Pastebin yet? Sign Up, it unlocks many cool features!
  1. General
  2. Unique ID : 2399251440617673781410506421101477124 (0x1CE143A9CDEDC8B67D35978B7793D04)
  3. Complete name : F:\Video\Godzilla.vs.Kong.2021.BDRip.1080p.seleZen.mkv
  4. Format : Matroska
  5. Format version : Version 4
  6. File size : 9.57 GiB
  7. Duration : 1 h 53 min
  8. Overall bit rate : 12.1 Mb/s
  9. Movie name : Godzilla vs Kong 2021 from seleZen
  10. Encoded date : UTC 2021-06-06 17:02:58
  11. Writing application : mkvmerge v55.0.0 ('Waiting For Space') 64-bit
  12. Writing library : libebml v1.4.2 + libmatroska v1.6.4
  13.  
  14. Video
  15. ID : 1
  16. Format : AVC
  17. Format/Info : Advanced Video Codec
  18. Format profile : High@L4.1
  19. Format settings : CABAC / 5 Ref Frames
  20. Format settings, CABAC : Yes
  21. Format settings, Reference : 5 frames
  22. Codec ID : V_MPEG4/ISO/AVC
  23. Duration : 1 h 53 min
  24. Bit rate : 10 000 kb/s
  25. Width : 1 920 pixels
  26. Height : 804 pixels
  27. Display aspect ratio : 2.40:1
  28. Frame rate mode : Constant
  29. Frame rate : 23.976 (24000/1001) FPS
  30. Color space : YUV
  31. Chroma subsampling : 4:2:0
  32. Bit depth : 8 bits
  33. Scan type : Progressive
  34. Bits/(Pixel*Frame) : 0.270
  35. Stream size : 7.90 GiB (83%)
  36. Writing library : x264 core 146 -from seleZen
  37. Encoding settings : cabac=1 / ref=5 / deblock=1:-2:-2 / analyse=0x3:0x133 / me=umh / subme=10 / psy=1 / psy_rd=1.05:0.05 / mixed_ref=1 / me_range=32 / chroma_me=1 / trellis=2 / 8x8dct=1 / cqm=0 / deadzone=21,11 / fast_pskip=0 / chroma_qp_offset=-3 / threads=36 / lookahead_threads=6 / sliced_threads=0 / nr=0 / decimate=0 / interlaced=0 / bluray_compat=0 / constrained_intra=0 / bframes=8 / b_pyramid=2 / b_adapt=2 / b_bias=0 / direct=3 / weightb=1 / open_gop=0 / weightp=2 / keyint=240 / keyint_min=23 / scenecut=40 / intra_refresh=0 / rc_lookahead=50 / rc=2pass / mbtree=0 / bitrate=10000 / ratetol=1.0 / qcomp=0.60 / qpmin=0 / qpmax=51 / qpstep=4 / cplxblur=20.0 / qblur=0.5 / vbv_maxrate=50000 / vbv_bufsize=62500 / nal_hrd=none / filler=0 / ip_ratio=1.40 / pb_ratio=1.30 / aq=3:0.80
  38. Language : English
  39. Default : Yes
  40. Forced : No
  41.  
  42. Audio #1
  43. ID : 2
  44. Format : AC-3
  45. Format/Info : Audio Coding 3
  46. Commercial name : Dolby Digital
  47. Codec ID : A_AC3
  48. Duration : 1 h 53 min
  49. Bit rate mode : Constant
  50. Bit rate : 384 kb/s
  51. Channel(s) : 6 channels
  52. Channel layout : L R C LFE Ls Rs
  53. Sampling rate : 48.0 kHz
  54. Frame rate : 31.250 FPS (1536 SPF)
  55. Compression mode : Lossy
  56. Stream size : 311 MiB (3%)
  57. Title : Dub
  58. Language : Russian
  59. Service kind : Complete Main
  60. Default : Yes
  61. Forced : Yes
  62.  
  63. Audio #2
  64. ID : 3
  65. Format : AC-3
  66. Format/Info : Audio Coding 3
  67. Commercial name : Dolby Digital
  68. Codec ID : A_AC3
  69. Duration : 1 h 53 min
  70. Bit rate mode : Constant
  71. Bit rate : 448 kb/s
  72. Channel(s) : 6 channels
  73. Channel layout : L R C LFE Ls Rs
  74. Sampling rate : 48.0 kHz
  75. Frame rate : 31.250 FPS (1536 SPF)
  76. Compression mode : Lossy
  77. Stream size : 363 MiB (4%)
  78. Title : MVO [HDRezka Studio]
  79. Language : Russian
  80. Service kind : Complete Main
  81. Default : No
  82. Forced : No
  83.  
  84. Audio #3
  85. ID : 4
  86. Format : AC-3
  87. Format/Info : Audio Coding 3
  88. Commercial name : Dolby Digital
  89. Codec ID : A_AC3
  90. Duration : 1 h 53 min
  91. Bit rate mode : Constant
  92. Bit rate : 640 kb/s
  93. Channel(s) : 6 channels
  94. Channel layout : L R C LFE Ls Rs
  95. Sampling rate : 48.0 kHz
  96. Frame rate : 31.250 FPS (1536 SPF)
  97. Compression mode : Lossy
  98. Stream size : 518 MiB (5%)
  99. Title : AVO [М.Яроцкий]
  100. Language : Russian
  101. Service kind : Complete Main
  102. Default : No
  103. Forced : No
  104.  
  105. Audio #4
  106. ID : 5
  107. Format : AC-3
  108. Format/Info : Audio Coding 3
  109. Commercial name : Dolby Digital
  110. Codec ID : A_AC3
  111. Duration : 1 h 53 min
  112. Bit rate mode : Constant
  113. Bit rate : 640 kb/s
  114. Channel(s) : 6 channels
  115. Channel layout : L R C LFE Ls Rs
  116. Sampling rate : 48.0 kHz
  117. Frame rate : 31.250 FPS (1536 SPF)
  118. Compression mode : Lossy
  119. Stream size : 518 MiB (5%)
  120. Title : Original
  121. Language : English
  122. Service kind : Complete Main
  123. Default : No
  124. Forced : No
  125.  
  126. Text #1
  127. ID : 6
  128. Format : UTF-8
  129. Codec ID : S_TEXT/UTF8
  130. Codec ID/Info : UTF-8 Plain Text
  131. Duration : 1 h 52 min
  132. Bit rate : 4 b/s
  133. Count of elements : 102
  134. Stream size : 3.64 KiB (0%)
  135. Title : Forced
  136. Language : Russian
  137. Default : Yes
  138. Forced : Yes
  139.  
  140. Text #2
  141. ID : 7
  142. Format : UTF-8
  143. Codec ID : S_TEXT/UTF8
  144. Codec ID/Info : UTF-8 Plain Text
  145. Duration : 1 h 44 min
  146. Bit rate : 7 b/s
  147. Count of elements : 129
  148. Stream size : 5.38 KiB (0%)
  149. Title : Forced [HDRezka Studio]
  150. Language : Russian
  151. Default : No
  152. Forced : No
  153.  
  154. Text #3
  155. ID : 8
  156. Format : UTF-8
  157. Codec ID : S_TEXT/UTF8
  158. Codec ID/Info : UTF-8 Plain Text
  159. Duration : 1 h 52 min
  160. Bit rate : 62 b/s
  161. Count of elements : 916
  162. Stream size : 51.5 KiB (0%)
  163. Title : Full
  164. Language : Russian
  165. Default : No
  166. Forced : No
  167.  
  168. Text #4
  169. ID : 9
  170. Format : UTF-8
  171. Codec ID : S_TEXT/UTF8
  172. Codec ID/Info : UTF-8 Plain Text
  173. Duration : 1 h 45 min
  174. Bit rate : 50 b/s
  175. Count of elements : 1415
  176. Stream size : 39.5 KiB (0%)
  177. Language : English
  178. Default : No
  179. Forced : No
  180.  
  181. Menu
  182. 00:00:00.000 : en:Chapter 01
  183. 00:09:51.591 : en:Chapter 02
  184. 00:20:07.498 : en:Chapter 03
  185. 00:29:02.366 : en:Chapter 04
  186. 00:38:39.734 : en:Chapter 05
  187. 00:49:15.995 : en:Chapter 06
  188. 00:57:17.017 : en:Chapter 07
  189. 01:09:07.977 : en:Chapter 08
  190. 01:18:33.876 : en:Chapter 09
  191. 01:30:06.109 : en:Chapter 10
  192. 01:41:58.946 : en:Chapter 11
  193.  
  194.  
RAW Paste Data