SHARE
TWEET

Untitled

Neo_Chip Feb 14th, 2020 92 Never
Not a member of Pastebin yet? Sign Up, it unlocks many cool features!
  1. dBpoweramp Release 16.2 Digital Audio Extraction Log from Tuesday, April 16, 2019 11:27
  2.  
  3. Drive & Settings
  4. ----------------
  5.  
  6. Ripping with drive 'F:   [TSSTcorp - CDDVDW SE-218GN ]',  Drive offset: 6,  Overread Lead-in/out: No
  7. AccurateRip: Active,  Using C2: No,  Cache: 1024 KB,  FUA Cache Invalidate: No
  8. Pass 1 Drive Speed: Max,  Pass 2 Drive Speed: Max
  9. Ultra::  Vary Drive Speed: No,  Min Passes: 3,  Max Passes: 6,  Finish After Clean Passes: 2
  10. Bad Sector Re-rip::  Drive Speed: Max,  Maximum Re-reads: 34
  11.  
  12. Encoder: FLAC -compression-level-5 -verify
  13. DSP Effects / Actions: -dspeffect1="CUE Sheet - Multiple Files= -UTF8"
  14.  
  15. Extraction Log
  16. --------------
  17.  
  18. Track 1:  Ripped LBA 0 to 2157 (0:28) in 0:02. Filename: C:\dBpoweramp\01 - Hello!pop'n music 10.flac
  19.   AccurateRip: Accurate (confidence 3)     [Pass 1]
  20.   CRC32: 216D7FEB     AccurateRip CRC: ADD5C5FC (CRCv2)     [DiscID: 037-005a9883-0947ed64-1010cd25-1]
  21.   AccurateRip Verified Confidence 3 [CRCv2 add5c5fc]
  22.  
  23. Track 2:  Ripped LBA 2157 to 11205 (2:00) in 0:12. Filename: C:\dBpoweramp\02 - STEREO TOKYO.flac
  24.   AccurateRip: Accurate (confidence 3)     [Pass 1]
  25.   CRC32: D1C9196A     AccurateRip CRC: F81FC27F (CRCv2)     [DiscID: 037-005a9883-0947ed64-1010cd25-2]
  26.   AccurateRip Verified Confidence 3 [CRCv2 f81fc27f]
  27.  
  28. Track 3:  Ripped LBA 11205 to 18337 (1:35) in 0:14. Filename: C:\dBpoweramp\03 - 絡繰男爵忌憚.flac
  29.   AccurateRip: Accurate (confidence 3)     [Pass 1]
  30.   CRC32: C374698D     AccurateRip CRC: 27725B0B (CRCv2)     [DiscID: 037-005a9883-0947ed64-1010cd25-3]
  31.   AccurateRip Verified Confidence 3 [CRCv2 27725b0b]
  32.  
  33. Track 4:  Ripped LBA 18337 to 25270 (1:32) in 0:07. Filename: C:\dBpoweramp\04 - STATION.flac
  34.   AccurateRip: Accurate (confidence 3)     [Pass 1]
  35.   CRC32: BE45C644     AccurateRip CRC: A72F3165 (CRCv2)     [DiscID: 037-005a9883-0947ed64-1010cd25-4]
  36.   AccurateRip Verified Confidence 3 [CRCv2 a72f3165]
  37.  
  38. Track 5:  Ripped LBA 25270 to 39532 (3:10) in 0:14. Filename: C:\dBpoweramp\05 - Atlantic Spotted Dolphin.flac
  39.   AccurateRip: Accurate (confidence 3)     [Pass 1]
  40.   CRC32: A3D67DD2     AccurateRip CRC: FCED6A49 (CRCv2)     [DiscID: 037-005a9883-0947ed64-1010cd25-5]
  41.   AccurateRip Verified Confidence 3 [CRCv2 fced6a49]
  42.  
  43. Track 6:  Ripped LBA 39532 to 48787 (2:03) in 0:09. Filename: C:\dBpoweramp\06 - Missing Cat.flac
  44.   AccurateRip: Accurate (confidence 3)     [Pass 1]
  45.   CRC32: B7A6034D     AccurateRip CRC: B886F6EE (CRCv2)     [DiscID: 037-005a9883-0947ed64-1010cd25-6]
  46.   AccurateRip Verified Confidence 3 [CRCv2 b886f6ee]
  47.  
  48. Track 7:  Ripped LBA 48787 to 57142 (1:51) in 0:07. Filename: C:\dBpoweramp\07 - Go Easy!!.flac
  49.   AccurateRip: Accurate (confidence 3)     [Pass 1]
  50.   CRC32: F7127896     AccurateRip CRC: 3E894965 (CRCv2)     [DiscID: 037-005a9883-0947ed64-1010cd25-7]
  51.   AccurateRip Verified Confidence 3 [CRCv2 3e894965]
  52.  
  53. Track 8:  Ripped LBA 57142 to 66282 (2:01) in 0:08. Filename: C:\dBpoweramp\08 - CUT OFF A CORNER.flac
  54.   AccurateRip: Accurate (confidence 3)     [Pass 1]
  55.   CRC32: 45F8D105     AccurateRip CRC: 9DBE7DFD (CRCv2)     [DiscID: 037-005a9883-0947ed64-1010cd25-8]
  56.   AccurateRip Verified Confidence 3 [CRCv2 9dbe7dfd]
  57.  
  58. Track 9:  Ripped LBA 66282 to 74295 (1:46) in 0:07. Filename: C:\dBpoweramp\09 - Raspberry♡Heart.flac
  59.   AccurateRip: Accurate (confidence 3)     [Pass 1]
  60.   CRC32: C9D9A8D1     AccurateRip CRC: D7E2EBEA (CRCv2)     [DiscID: 037-005a9883-0947ed64-1010cd25-9]
  61.   AccurateRip Verified Confidence 3 [CRCv2 d7e2ebea]
  62.  
  63. Track 10:  Ripped LBA 74295 to 83017 (1:56) in 0:07. Filename: C:\dBpoweramp\10 - SUMMERTIME.flac
  64.   AccurateRip: Accurate (confidence 3)     [Pass 1]
  65.   CRC32: 8DA7B4BF     AccurateRip CRC: A6AA885B (CRCv2)     [DiscID: 037-005a9883-0947ed64-1010cd25-10]
  66.   AccurateRip Verified Confidence 3 [CRCv2 a6aa885b]
  67.  
  68. Track 11:  Ripped LBA 83017 to 91932 (1:58) in 0:07. Filename: C:\dBpoweramp\11 - 海の歌.flac
  69.   AccurateRip: Accurate (confidence 3)     [Pass 1]
  70.   CRC32: D95FBB35     AccurateRip CRC: 5BA28118 (CRCv2)     [DiscID: 037-005a9883-0947ed64-1010cd25-11]
  71.   AccurateRip Verified Confidence 3 [CRCv2 5ba28118]
  72.  
  73. Track 12:  Ripped LBA 91932 to 100320 (1:51) in 0:06. Filename: C:\dBpoweramp\12 - Ping×Pong×Dash.flac
  74.   AccurateRip: Accurate (confidence 3)     [Pass 1]
  75.   CRC32: 72116763     AccurateRip CRC: 65513584 (CRCv2)     [DiscID: 037-005a9883-0947ed64-1010cd25-12]
  76.   AccurateRip Verified Confidence 3 [CRCv2 65513584]
  77.  
  78. Track 13:  Ripped LBA 100320 to 108975 (1:55) in 0:07. Filename: C:\dBpoweramp\13 - SCI-FI.flac
  79.   AccurateRip: Accurate (confidence 3)     [Pass 1]
  80.   CRC32: A365F64D     AccurateRip CRC: 35D182A6 (CRCv2)     [DiscID: 037-005a9883-0947ed64-1010cd25-13]
  81.   AccurateRip Verified Confidence 3 [CRCv2 35d182a6]
  82.  
  83. Track 14:  Ripped LBA 108975 to 117832 (1:58) in 0:07. Filename: C:\dBpoweramp\14 - THE PLACE TO BE.flac
  84.   AccurateRip: Accurate (confidence 3)     [Pass 1]
  85.   CRC32: 5B94470F     AccurateRip CRC: 5D3BFD06 (CRCv2)     [DiscID: 037-005a9883-0947ed64-1010cd25-14]
  86.   AccurateRip Verified Confidence 3 [CRCv2 5d3bfd06]
  87.  
  88. Track 15:  Ripped LBA 117832 to 125275 (1:39) in 0:05. Filename: C:\dBpoweramp\15 - 思い出の巴里祭.flac
  89.   AccurateRip: Accurate (confidence 3)     [Pass 1]
  90.   CRC32: 13F7E186     AccurateRip CRC: 0BE4492F (CRCv2)     [DiscID: 037-005a9883-0947ed64-1010cd25-15]
  91.   AccurateRip Verified Confidence 3 [CRCv2 be4492f]
  92.  
  93. Track 16:  Ripped LBA 125275 to 132967 (1:42) in 0:05. Filename: C:\dBpoweramp\16 - ポレポレの雨乞いの唄.flac
  94.   AccurateRip: Accurate (confidence 3)     [Pass 1]
  95.   CRC32: C87197C9     AccurateRip CRC: 15E96563 (CRCv2)     [DiscID: 037-005a9883-0947ed64-1010cd25-16]
  96.   AccurateRip Verified Confidence 3 [CRCv2 15e96563]
  97.  
  98. Track 17:  Ripped LBA 132967 to 142095 (2:01) in 0:06. Filename: C:\dBpoweramp\17 - 青春スタイル in 2003.flac
  99.   AccurateRip: Accurate (confidence 3)     [Pass 1]
  100.   CRC32: 9154CC15     AccurateRip CRC: F0C554ED (CRCv2)     [DiscID: 037-005a9883-0947ed64-1010cd25-17]
  101.   AccurateRip Verified Confidence 3 [CRCv2 f0c554ed]
  102.  
  103. Track 18:  Ripped LBA 142095 to 150515 (1:52) in 0:06. Filename: C:\dBpoweramp\18 - This way.flac
  104.   AccurateRip: Accurate (confidence 3)     [Pass 1]
  105.   CRC32: FE4D608B     AccurateRip CRC: A35DAD4D (CRCv2)     [DiscID: 037-005a9883-0947ed64-1010cd25-18]
  106.   AccurateRip Verified Confidence 3 [CRCv2 a35dad4d]
  107.  
  108. Track 19:  Ripped LBA 150515 to 159590 (2:01) in 0:06. Filename: C:\dBpoweramp\19 - Blaster.flac
  109.   AccurateRip: Accurate (confidence 3)     [Pass 1]
  110.   CRC32: F28590F8     AccurateRip CRC: A852CD03 (CRCv2)     [DiscID: 037-005a9883-0947ed64-1010cd25-19]
  111.   AccurateRip Verified Confidence 3 [CRCv2 a852cd03]
  112.  
  113. Track 20:  Ripped LBA 159590 to 168657 (2:00) in 0:06. Filename: C:\dBpoweramp\20 - 魔法的新定義.flac
  114.   AccurateRip: Accurate (confidence 3)     [Pass 1]
  115.   CRC32: 3B46A6C3     AccurateRip CRC: 0DBA284B (CRCv2)     [DiscID: 037-005a9883-0947ed64-1010cd25-20]
  116.   AccurateRip Verified Confidence 3 [CRCv2 dba284b]
  117.  
  118. Track 21:  Ripped LBA 168657 to 177155 (1:53) in 0:05. Filename: C:\dBpoweramp\21 - disable dA STACK.flac
  119.   AccurateRip: Accurate (confidence 3)     [Pass 1]
  120.   CRC32: 70C90151     AccurateRip CRC: CB7F9FEC (CRCv2)     [DiscID: 037-005a9883-0947ed64-1010cd25-21]
  121.   AccurateRip Verified Confidence 3 [CRCv2 cb7f9fec]
  122.  
  123. Track 22:  Ripped LBA 177155 to 185905 (1:56) in 0:05. Filename: C:\dBpoweramp\22 - Sabrina.flac
  124.   AccurateRip: Accurate (confidence 3)     [Pass 1]
  125.   CRC32: E0CCA90B     AccurateRip CRC: 352B2AEF (CRCv2)     [DiscID: 037-005a9883-0947ed64-1010cd25-22]
  126.   AccurateRip Verified Confidence 3 [CRCv2 352b2aef]
  127.  
  128. Track 23:  Ripped LBA 185905 to 193552 (1:41) in 0:05. Filename: C:\dBpoweramp\23 - ナーバス ブレークダウン~タイプゼロ~.flac
  129.   AccurateRip: Accurate (confidence 3)     [Pass 1]
  130.   CRC32: 1C762B68     AccurateRip CRC: 79AF46BE (CRCv2)     [DiscID: 037-005a9883-0947ed64-1010cd25-23]
  131.   AccurateRip Verified Confidence 3 [CRCv2 79af46be]
  132.  
  133. Track 24:  Ripped LBA 193552 to 203217 (2:08) in 0:06. Filename: C:\dBpoweramp\24 - ULTRA BUTTERFLY(坤剛力).flac
  134.   AccurateRip: Accurate (confidence 3)     [Pass 1]
  135.   CRC32: EBCF937B     AccurateRip CRC: 6C98002E (CRCv2)     [DiscID: 037-005a9883-0947ed64-1010cd25-24]
  136.   AccurateRip Verified Confidence 3 [CRCv2 6c98002e]
  137.  
  138. Track 25:  Ripped LBA 203217 to 212867 (2:08) in 0:06. Filename: C:\dBpoweramp\25 - 明鏡止水.flac
  139.   AccurateRip: Accurate (confidence 3)     [Pass 1]
  140.   CRC32: 88F87F42     AccurateRip CRC: E2FAA25E (CRCv2)     [DiscID: 037-005a9883-0947ed64-1010cd25-25]
  141.   AccurateRip Verified Confidence 3 [CRCv2 e2faa25e]
  142.  
  143. Track 26:  Ripped LBA 212867 to 221357 (1:53) in 0:05. Filename: C:\dBpoweramp\26 - Holy Forest.flac
  144.   AccurateRip: Accurate (confidence 3)     [Pass 1]
  145.   CRC32: 6BCF74B0     AccurateRip CRC: 48CA94BD (CRCv2)     [DiscID: 037-005a9883-0947ed64-1010cd25-26]
  146.   AccurateRip Verified Confidence 3 [CRCv2 48ca94bd]
  147.  
  148. Track 27:  Ripped LBA 221357 to 230402 (2:00) in 0:05. Filename: C:\dBpoweramp\27 - ポップン販売株式会社.flac
  149.   AccurateRip: Accurate (confidence 3)     [Pass 1]
  150.   CRC32: 1D488EBD     AccurateRip CRC: 588BA7F5 (CRCv2)     [DiscID: 037-005a9883-0947ed64-1010cd25-27]
  151.   AccurateRip Verified Confidence 3 [CRCv2 588ba7f5]
  152.  
  153. Track 28:  Ripped LBA 230402 to 237562 (1:35) in 0:04. Filename: C:\dBpoweramp\28 - GOONIES 'R' GOOD ENOUGH / グーニーズはグッドイナフ.flac
  154.   AccurateRip: Accurate (confidence 3)     [Pass 1]
  155.   CRC32: 71D06A2F     AccurateRip CRC: AEAF9506 (CRCv2)     [DiscID: 037-005a9883-0947ed64-1010cd25-28]
  156.   AccurateRip Verified Confidence 3 [CRCv2 aeaf9506]
  157.  
  158. Track 29:  Ripped LBA 237562 to 246600 (2:00) in 0:05. Filename: C:\dBpoweramp\29 - ヒデオ体操第一.flac
  159.   AccurateRip: Accurate (confidence 3)     [Pass 1]
  160.   CRC32: 74853414     AccurateRip CRC: 5FD08A65 (CRCv2)     [DiscID: 037-005a9883-0947ed64-1010cd25-29]
  161.   AccurateRip Verified Confidence 3 [CRCv2 5fd08a65]
  162.  
  163. Track 30:  Ripped LBA 246600 to 255600 (2:00) in 0:05. Filename: C:\dBpoweramp\30 - murmur twins(guitar pop ver.).flac
  164.   AccurateRip: Accurate (confidence 2)     [Pass 1]
  165.   CRC32: 397562D7     AccurateRip CRC: 509B5162 (CRCv2)     [DiscID: 037-005a9883-0947ed64-1010cd25-30]
  166.   AccurateRip Verified Confidence 2 [CRCv2 509b5162]
  167.  
  168. Track 31:  Ripped LBA 255600 to 263182 (1:41) in 0:04. Filename: C:\dBpoweramp\31 - Arrabbiata.flac
  169.   AccurateRip: Accurate (confidence 2)     [Pass 1]
  170.   CRC32: 529FB07A     AccurateRip CRC: AB03B57F (CRCv2)     [DiscID: 037-005a9883-0947ed64-1010cd25-31]
  171.   AccurateRip Verified Confidence 2 [CRCv2 ab03b57f]
  172.  
  173. Track 32:  Ripped LBA 263182 to 272625 (2:05) in 0:05. Filename: C:\dBpoweramp\32 - 幸せを謳う詩.flac
  174.   AccurateRip: Accurate (confidence 3)     [Pass 1]
  175.   CRC32: 8C583C0F     AccurateRip CRC: 0AA30DD5 (CRCv2)     [DiscID: 037-005a9883-0947ed64-1010cd25-32]
  176.   AccurateRip Verified Confidence 3 [CRCv2 aa30dd5]
  177.  
  178. Track 33:  Ripped LBA 272625 to 280425 (1:44) in 0:06. Filename: C:\dBpoweramp\33 - Jack.flac
  179.   AccurateRip: Accurate (confidence 3)     [Pass 1]
  180.   CRC32: 545BF5BA     AccurateRip CRC: D931D11C (CRCv2)     [DiscID: 037-005a9883-0947ed64-1010cd25-33]
  181.   AccurateRip Verified Confidence 3 [CRCv2 d931d11c]
  182.  
  183. Track 34:  Ripped LBA 280425 to 292767 (2:44) in 0:11. Filename: C:\dBpoweramp\34 - Votum stellarum.flac
  184.   AccurateRip: Accurate (confidence 3)     [Pass 1]
  185.   CRC32: D9C38EB2     AccurateRip CRC: 9D597ED2 (CRCv2)     [DiscID: 037-005a9883-0947ed64-1010cd25-34]
  186.   AccurateRip Verified Confidence 3 [CRCv2 9d597ed2]
  187.  
  188. Track 35:  Ripped LBA 292767 to 304090 (2:30) in 0:06. Filename: C:\dBpoweramp\35 - DDR MEGAMIX.flac
  189.   AccurateRip: Accurate (confidence 3)     [Pass 1]
  190.   CRC32: F7843399     AccurateRip CRC: 7F016360 (CRCv2)     [DiscID: 037-005a9883-0947ed64-1010cd25-35]
  191.   AccurateRip Verified Confidence 3 [CRCv2 7f016360]
  192.  
  193. Track 36:  Ripped LBA 304090 to 313200 (2:01) in 0:05. Filename: C:\dBpoweramp\36 - スウィーツ~instrumental.flac
  194.   AccurateRip: Accurate (confidence 3)     [Pass 1]
  195.   CRC32: 62084AD0     AccurateRip CRC: C374C0B2 (CRCv2)     [DiscID: 037-005a9883-0947ed64-1010cd25-36]
  196.   AccurateRip Verified Confidence 3 [CRCv2 c374c0b2]
  197.  
  198. Track 37:  Ripped LBA 313200 to 322595 (2:05) in 0:05. Filename: C:\dBpoweramp\37 - 'Princess Piccolo'.flac
  199.   AccurateRip: Accurate (confidence 3)     [Pass 1]
  200.   CRC32: 0CCF44A5     AccurateRip CRC: 7E96586F (CRCv2)     [DiscID: 037-005a9883-0947ed64-1010cd25-37]
  201.   AccurateRip Verified Confidence 3 [CRCv2 7e96586f]
  202.  
  203. --------------
  204.  
  205. 37 Tracks Ripped Accurately
  206.  
  207.  
  208.  
  209.  
  210.  
  211. dBpoweramp Release 16.2 Digital Audio Extraction Log from Tuesday, April 16, 2019 12:33
  212.  
  213. Drive & Settings
  214. ----------------
  215.  
  216. Ripping with drive 'F:   [TSSTcorp - CDDVDW SE-218GN ]',  Drive offset: 6,  Overread Lead-in/out: No
  217. AccurateRip: Active,  Using C2: No,  Cache: 1024 KB,  FUA Cache Invalidate: No
  218. Pass 1 Drive Speed: Max,  Pass 2 Drive Speed: Max
  219. Ultra::  Vary Drive Speed: No,  Min Passes: 3,  Max Passes: 6,  Finish After Clean Passes: 2
  220. Bad Sector Re-rip::  Drive Speed: Max,  Maximum Re-reads: 34
  221.  
  222. Encoder: FLAC -compression-level-5 -verify
  223. DSP Effects / Actions: -dspeffect1="CUE Sheet - Multiple Files= -UTF8"
  224.  
  225. Extraction Log
  226. --------------
  227.  
  228. Track 1:  Ripped LBA 0 to 8087 (1:47) in 0:09. Filename: C:\dBpoweramp\01 - HOLIDAY.flac
  229.   AccurateRip: Accurate (confidence 3)     [Pass 1]
  230.   CRC32: 1291FAD1     AccurateRip CRC: 95B9CBB8 (CRCv2)     [DiscID: 037-005905a5-092f3b90-0b11e425-1]
  231.   AccurateRip Verified Confidence 3 [CRCv2 95b9cbb8]
  232.  
  233. Track 2:  Ripped LBA 8087 to 15742 (1:42) in 0:08. Filename: C:\dBpoweramp\02 - テキサスのガンマン.flac
  234.   AccurateRip: Accurate (confidence 3)     [Pass 1]
  235.   CRC32: 11AB4E31     AccurateRip CRC: 8B8CB811 (CRCv2)     [DiscID: 037-005905a5-092f3b90-0b11e425-2]
  236.   AccurateRip Verified Confidence 3 [CRCv2 8b8cb811]
  237.  
  238. Track 3:  Ripped LBA 15742 to 22237 (1:26) in 0:07. Filename: C:\dBpoweramp\03 - トロイカダンス.flac
  239.   AccurateRip: Accurate (confidence 3)     [Pass 1]
  240.   CRC32: 13965571     AccurateRip CRC: EFE175BB (CRCv2)     [DiscID: 037-005905a5-092f3b90-0b11e425-3]
  241.   AccurateRip Verified Confidence 3 [CRCv2 efe175bb]
  242.  
  243. Track 4:  Ripped LBA 22237 to 30267 (1:47) in 0:08. Filename: C:\dBpoweramp\04 - dandelion.flac
  244.   AccurateRip: Accurate (confidence 3)     [Pass 1]
  245.   CRC32: A4F82399     AccurateRip CRC: 7BCD3FB9 (CRCv2)     [DiscID: 037-005905a5-092f3b90-0b11e425-4]
  246.   AccurateRip Verified Confidence 3 [CRCv2 7bcd3fb9]
  247.  
  248. Track 5:  Ripped LBA 30267 to 37467 (1:36) in 0:07. Filename: C:\dBpoweramp\05 - Sea Side City.flac
  249.   AccurateRip: Accurate (confidence 3)     [Pass 1]
  250.   CRC32: D77B2373     AccurateRip CRC: 786D196C (CRCv2)     [DiscID: 037-005905a5-092f3b90-0b11e425-5]
  251.   AccurateRip Verified Confidence 3 [CRCv2 786d196c]
  252.  
  253. Track 6:  Ripped LBA 37467 to 45155 (1:42) in 0:07. Filename: C:\dBpoweramp\06 - きえた!?ナポレオン.flac
  254.   AccurateRip: Accurate (confidence 3)     [Pass 1]
  255.   CRC32: AF4627C4     AccurateRip CRC: 1AFAE303 (CRCv2)     [DiscID: 037-005905a5-092f3b90-0b11e425-6]
  256.   AccurateRip Verified Confidence 3 [CRCv2 1afae303]
  257.  
  258. Track 7:  Ripped LBA 45155 to 52502 (1:37) in 0:07. Filename: C:\dBpoweramp\07 - ラブ・アコーディオン.flac
  259.   AccurateRip: Accurate (confidence 3)     [Pass 1]
  260.   CRC32: 0F633929     AccurateRip CRC: 9E6DC5AA (CRCv2)     [DiscID: 037-005905a5-092f3b90-0b11e425-7]
  261.   AccurateRip Verified Confidence 3 [CRCv2 9e6dc5aa]
  262.  
  263. Track 8:  Ripped LBA 52502 to 60540 (1:47) in 0:07. Filename: C:\dBpoweramp\08 - にんげんっていいな.flac
  264.   AccurateRip: Accurate (confidence 3)     [Pass 1]
  265.   CRC32: 662A3742     AccurateRip CRC: 29F74605 (CRCv2)     [DiscID: 037-005905a5-092f3b90-0b11e425-8]
  266.   AccurateRip Verified Confidence 3 [CRCv2 29f74605]
  267.  
  268. Track 9:  Ripped LBA 60540 to 68490 (1:46) in 0:07. Filename: C:\dBpoweramp\09 - レッツゴー!!ライダーキック.flac
  269.   AccurateRip: Accurate (confidence 3)     [Pass 1]
  270.   CRC32: B6879D96     AccurateRip CRC: 5EF267EF (CRCv2)     [DiscID: 037-005905a5-092f3b90-0b11e425-9]
  271.   AccurateRip Verified Confidence 3 [CRCv2 5ef267ef]
  272.  
  273. Track 10:  Ripped LBA 68490 to 76865 (1:51) in 0:07. Filename: C:\dBpoweramp\10 - おしえて.flac
  274.   AccurateRip: Accurate (confidence 3)     [Pass 1]
  275.   CRC32: 0C7248E3     AccurateRip CRC: 7B435BF3 (CRCv2)     [DiscID: 037-005905a5-092f3b90-0b11e425-10]
  276.   AccurateRip Verified Confidence 3 [CRCv2 7b435bf3]
  277.  
  278. Track 11:  Ripped LBA 76865 to 85742 (1:58) in 0:07. Filename: C:\dBpoweramp\11 - きてよパーマン.flac
  279.   AccurateRip: Accurate (confidence 3)     [Pass 1]
  280.   CRC32: 44A5FD60     AccurateRip CRC: 127E6FEE (CRCv2)     [DiscID: 037-005905a5-092f3b90-0b11e425-11]
  281.   AccurateRip Verified Confidence 3 [CRCv2 127e6fee]
  282.  
  283. Track 12:  Ripped LBA 85742 to 93420 (1:42) in 0:06. Filename: C:\dBpoweramp\12 - パタパタママ.flac
  284.   AccurateRip: Accurate (confidence 3)     [Pass 1]
  285.   CRC32: 6BD889F7     AccurateRip CRC: 338945D3 (CRCv2)     [DiscID: 037-005905a5-092f3b90-0b11e425-12]
  286.   AccurateRip Verified Confidence 3 [CRCv2 338945d3]
  287.  
  288. Track 13:  Ripped LBA 93420 to 101662 (1:49) in 0:08. Filename: C:\dBpoweramp\13 - ガッチャマンの歌.flac
  289.   AccurateRip: Accurate (confidence 3)     [Pass 1]
  290.   CRC32: 2D771538     AccurateRip CRC: 7B4FCD5B (CRCv2)     [DiscID: 037-005905a5-092f3b90-0b11e425-13]
  291.   AccurateRip Verified Confidence 3 [CRCv2 7b4fcd5b]
  292.  
  293. Track 14:  Ripped LBA 101662 to 109895 (1:49) in 0:12. Filename: C:\dBpoweramp\14 - DSCHINGIS KHAN.flac
  294.   AccurateRip: Accurate (confidence 3)     [Pass 1]
  295.   CRC32: 3B564D42     AccurateRip CRC: 50A8ED4B (CRCv2)     [DiscID: 037-005905a5-092f3b90-0b11e425-14]
  296.   AccurateRip Verified Confidence 3 [CRCv2 50a8ed4b]
  297.  
  298. Track 15:  Ripped LBA 109895 to 117570 (1:42) in 0:06. Filename: C:\dBpoweramp\15 - ウキウキWatching.flac
  299.   AccurateRip: Accurate (confidence 3)     [Pass 1]
  300.   CRC32: 051377F4     AccurateRip CRC: 5942FE5C (CRCv2)     [DiscID: 037-005905a5-092f3b90-0b11e425-15]
  301.   AccurateRip Verified Confidence 3 [CRCv2 5942fe5c]
  302.  
  303. Track 16:  Ripped LBA 117570 to 127130 (2:07) in 0:07. Filename: C:\dBpoweramp\16 - 夢で見た翼で.flac
  304.   AccurateRip: Accurate (confidence 3)     [Pass 1]
  305.   CRC32: 5A15CB43     AccurateRip CRC: F7828D6D (CRCv2)     [DiscID: 037-005905a5-092f3b90-0b11e425-16]
  306.   AccurateRip Verified Confidence 3 [CRCv2 f7828d6d]
  307.  
  308. Track 17:  Ripped LBA 127130 to 135317 (1:49) in 0:06. Filename: C:\dBpoweramp\17 - 君と微笑みと....flac
  309.   AccurateRip: Accurate (confidence 3)     [Pass 1]
  310.   CRC32: B194F848     AccurateRip CRC: D321497D (CRCv2)     [DiscID: 037-005905a5-092f3b90-0b11e425-17]
  311.   AccurateRip Verified Confidence 3 [CRCv2 d321497d]
  312.  
  313. Track 18:  Ripped LBA 135317 to 145037 (2:09) in 0:07. Filename: C:\dBpoweramp\18 - silent green.flac
  314.   AccurateRip: Accurate (confidence 3)     [Pass 1]
  315.   CRC32: 91DF901E     AccurateRip CRC: 7843CCCB (CRCv2)     [DiscID: 037-005905a5-092f3b90-0b11e425-18]
  316.   AccurateRip Verified Confidence 3 [CRCv2 7843cccb]
  317.  
  318. Track 19:  Ripped LBA 145037 to 152627 (1:41) in 0:05. Filename: C:\dBpoweramp\19 - Happy Birthday!!~with a million kisses~.flac
  319.   AccurateRip: Accurate (confidence 3)     [Pass 1]
  320.   CRC32: 35FE8FFD     AccurateRip CRC: 3221C0EF (CRCv2)     [DiscID: 037-005905a5-092f3b90-0b11e425-19]
  321.   AccurateRip Verified Confidence 3 [CRCv2 3221c0ef]
  322.  
  323. Track 20:  Ripped LBA 152627 to 159797 (1:35) in 0:05. Filename: C:\dBpoweramp\20 - rings on the water.flac
  324.   AccurateRip: Accurate (confidence 3)     [Pass 1]
  325.   CRC32: E0C0AC17     AccurateRip CRC: EDE8A6A7 (CRCv2)     [DiscID: 037-005905a5-092f3b90-0b11e425-20]
  326.   AccurateRip Verified Confidence 3 [CRCv2 ede8a6a7]
  327.  
  328. Track 21:  Ripped LBA 159797 to 168675 (1:58) in 0:06. Filename: C:\dBpoweramp\21 - 顔について.flac
  329.   AccurateRip: Accurate (confidence 3)     [Pass 1]
  330.   CRC32: C45305BB     AccurateRip CRC: 37C4D01A (CRCv2)     [DiscID: 037-005905a5-092f3b90-0b11e425-21]
  331.   AccurateRip Verified Confidence 3 [CRCv2 37c4d01a]
  332.  
  333. Track 22:  Ripped LBA 168675 to 179635 (2:26) in 0:07. Filename: C:\dBpoweramp\22 - MILK.flac
  334.   AccurateRip: Accurate (confidence 3)     [Pass 1]
  335.   CRC32: 9E510EF6     AccurateRip CRC: 12F75974 (CRCv2)     [DiscID: 037-005905a5-092f3b90-0b11e425-22]
  336.   AccurateRip Verified Confidence 3 [CRCv2 12f75974]
  337.  
  338. Track 23:  Ripped LBA 179635 to 188637 (2:00) in 0:06. Filename: C:\dBpoweramp\23 - The chamomile of night.flac
  339.   AccurateRip: Accurate (confidence 3)     [Pass 1]
  340.   CRC32: B519F0C7     AccurateRip CRC: E6628E5B (CRCv2)     [DiscID: 037-005905a5-092f3b90-0b11e425-23]
  341.   AccurateRip Verified Confidence 3 [CRCv2 e6628e5b]
  342.  
  343. Track 24:  Ripped LBA 188637 to 197625 (1:59) in 0:06. Filename: C:\dBpoweramp\24 - spring.flac
  344.   AccurateRip: Accurate (confidence 3)     [Pass 1]
  345.   CRC32: C69CC073     AccurateRip CRC: F7637E5F (CRCv2)     [DiscID: 037-005905a5-092f3b90-0b11e425-24]
  346.   AccurateRip Verified Confidence 3 [CRCv2 f7637e5f]
  347.  
  348. Track 25:  Ripped LBA 197625 to 206525 (1:58) in 0:05. Filename: C:\dBpoweramp\25 - A change of probability.flac
  349.   AccurateRip: Accurate (confidence 3)     [Pass 1]
  350.   CRC32: 1DAD2686     AccurateRip CRC: 269B41D5 (CRCv2)     [DiscID: 037-005905a5-092f3b90-0b11e425-25]
  351.   AccurateRip Verified Confidence 3 [CRCv2 269b41d5]
  352.  
  353. Track 26:  Ripped LBA 206525 to 213962 (1:39) in 0:04. Filename: C:\dBpoweramp\26 - 梦想称.flac
  354.   AccurateRip: Accurate (confidence 3)     [Pass 1]
  355.   CRC32: 3F1E0A5B     AccurateRip CRC: 435E979E (CRCv2)     [DiscID: 037-005905a5-092f3b90-0b11e425-26]
  356.   AccurateRip Verified Confidence 3 [CRCv2 435e979e]
  357.  
  358. Track 27:  Ripped LBA 213962 to 223067 (2:01) in 0:05. Filename: C:\dBpoweramp\27 - School Life.flac
  359.   AccurateRip: Accurate (confidence 3)     [Pass 1]
  360.   CRC32: 5B9FF423     AccurateRip CRC: 6ACC90A0 (CRCv2)     [DiscID: 037-005905a5-092f3b90-0b11e425-27]
  361.   AccurateRip Verified Confidence 3 [CRCv2 6acc90a0]
  362.  
  363. Track 28:  Ripped LBA 223067 to 234900 (2:37) in 0:07. Filename: C:\dBpoweramp\28 - Beyond the Bounds(Mitsuto Suzuki 020203 Mix feat:Sana).flac
  364.   AccurateRip: Accurate (confidence 3)     [Pass 1]
  365.   CRC32: DB1E990B     AccurateRip CRC: F5CAE651 (CRCv2)     [DiscID: 037-005905a5-092f3b90-0b11e425-28]
  366.   AccurateRip Verified Confidence 3 [CRCv2 f5cae651]
  367.  
  368. Track 29:  Ripped LBA 234900 to 245410 (2:20) in 0:06. Filename: C:\dBpoweramp\29 - ロマンス.flac
  369.   AccurateRip: Accurate (confidence 3)     [Pass 1]
  370.   CRC32: F1CAB1BC     AccurateRip CRC: 8E81901A (CRCv2)     [DiscID: 037-005905a5-092f3b90-0b11e425-29]
  371.   AccurateRip Verified Confidence 3 [CRCv2 8e81901a]
  372.  
  373. Track 30:  Ripped LBA 245410 to 254717 (2:04) in 0:05. Filename: C:\dBpoweramp\30 - 桃色時限爆弾.flac
  374.   AccurateRip: Accurate (confidence 3)     [Pass 1]
  375.   CRC32: BA7EE967     AccurateRip CRC: 6BC65BD7 (CRCv2)     [DiscID: 037-005905a5-092f3b90-0b11e425-30]
  376.   AccurateRip Verified Confidence 3 [CRCv2 6bc65bd7]
  377.  
  378. Track 31:  Ripped LBA 254717 to 262692 (1:46) in 0:04. Filename: C:\dBpoweramp\31 - Line Times.flac
  379.   AccurateRip: Accurate (confidence 3)     [Pass 1]
  380.   CRC32: B9BB9E21     AccurateRip CRC: 8A71B1B1 (CRCv2)     [DiscID: 037-005905a5-092f3b90-0b11e425-31]
  381.   AccurateRip Verified Confidence 3 [CRCv2 8a71b1b1]
  382.  
  383. Track 32:  Ripped LBA 262692 to 270875 (1:49) in 0:04. Filename: C:\dBpoweramp\32 - はぴはぴGROOVE!~あなたにおちるスパイラル~.flac
  384.   AccurateRip: Accurate (confidence 3)     [Pass 1]
  385.   CRC32: B85E7B82     AccurateRip CRC: 621DED02 (CRCv2)     [DiscID: 037-005905a5-092f3b90-0b11e425-32]
  386.   AccurateRip Verified Confidence 3 [CRCv2 621ded02]
  387.  
  388. Track 33:  Ripped LBA 270875 to 278737 (1:44) in 0:04. Filename: C:\dBpoweramp\33 - Cryin'.flac
  389.   AccurateRip: Accurate (confidence 3)     [Pass 1]
  390.   CRC32: A6D300D6     AccurateRip CRC: 4C87E207 (CRCv2)     [DiscID: 037-005905a5-092f3b90-0b11e425-33]
  391.   AccurateRip Verified Confidence 3 [CRCv2 4c87e207]
  392.  
  393. Track 34:  Ripped LBA 278737 to 287287 (1:54) in 0:04. Filename: C:\dBpoweramp\34 - Artemis.flac
  394.   AccurateRip: Accurate (confidence 3)     [Pass 1]
  395.   CRC32: 2E663E11     AccurateRip CRC: A62E7970 (CRCv2)     [DiscID: 037-005905a5-092f3b90-0b11e425-34]
  396.   AccurateRip Verified Confidence 3 [CRCv2 a62e7970]
  397.  
  398. Track 35:  Ripped LBA 287287 to 307392 (4:28) in 0:11. Filename: C:\dBpoweramp\35 - Holy Forest(long version).flac
  399.   AccurateRip: Accurate (confidence 3)     [Pass 1]
  400.   CRC32: 3D558215     AccurateRip CRC: D6DCBBC2 (CRCv2)     [DiscID: 037-005905a5-092f3b90-0b11e425-35]
  401.   AccurateRip Verified Confidence 3 [CRCv2 d6dcbbc2]
  402.  
  403. Track 36:  Ripped LBA 307392 to 324912 (3:53) in 0:09. Filename: C:\dBpoweramp\36 - 'Princess Piccolo'(long version).flac
  404.   AccurateRip: Accurate (confidence 3)     [Pass 1]
  405.   CRC32: 3CDC7997     AccurateRip CRC: CC8B7F88 (CRCv2)     [DiscID: 037-005905a5-092f3b90-0b11e425-36]
  406.   AccurateRip Verified Confidence 3 [CRCv2 cc8b7f88]
  407.  
  408. Track 37:  Ripped LBA 324912 to 343552 (4:08) in 0:10. Filename: C:\dBpoweramp\37 - Artemis ~original long ver~.flac
  409.   AccurateRip: Accurate (confidence 2)     [Pass 1]
  410.   CRC32: AB4EB556     AccurateRip CRC: F1812DC7 (CRCv2)     [DiscID: 037-005905a5-092f3b90-0b11e425-37]
  411.   AccurateRip Verified Confidence 2 [CRCv2 f1812dc7]
  412.  
  413. --------------
  414.  
  415. 37 Tracks Ripped Accurately
RAW Paste Data
We use cookies for various purposes including analytics. By continuing to use Pastebin, you agree to our use of cookies as described in the Cookies Policy. OK, I Understand
Top