Advertisement
yushiro

p.En Tierra Peligrosa (1994)[BDRip 1080p].yus

Oct 9th, 2020
512
0
Never
Not a member of Pastebin yet? Sign Up, it unlocks many cool features!
text 5.55 KB | None | 0 0
  1. General
  2. Unique ID : 39627406171708013055562194359472399719 (0x1DCFF5F811191049760F54BF93B0A567)
  3. Complete name : G:\En Tierra Peligrosa (1994)[BDRip 1080p].mkv
  4. Format : Matroska
  5. Format version : Version 4
  6. File size : 9.17 GiB
  7. Duration : 1 h 41 min
  8. Overall bit rate : 12.9 Mb/s
  9. Movie name : On Deadly Ground [1994] 1080p BluRay - HJ
  10. Encoded date : UTC 2020-10-07 23:31:13
  11. Writing application : mkvmerge v44.0.0 ('Domino') 64-bit
  12. Writing library : libebml v1.3.10 + libmatroska v1.5.2
  13.  
  14. Video
  15. ID : 1
  16. Format : AVC
  17. Format/Info : Advanced Video Codec
  18. Format profile : High@L4.1
  19. Format settings : CABAC / 5 Ref Frames
  20. Format settings, CABAC : Yes
  21. Format settings, Reference : 5 frames
  22. Codec ID : V_MPEG4/ISO/AVC
  23. Duration : 1 h 41 min
  24. Bit rate : 11.8 Mb/s
  25. Width : 1 920 pixels
  26. Height : 796 pixels
  27. Display aspect ratio : 2.40:1
  28. Frame rate mode : Constant
  29. Frame rate : 23.976 (24000/1001) FPS
  30. Color space : YUV
  31. Chroma subsampling : 4:2:0
  32. Bit depth : 8 bits
  33. Scan type : Progressive
  34. Bits/(Pixel*Frame) : 0.322
  35. Stream size : 8.39 GiB (92%)
  36. Title : En Tierra Peligrosa (1994)[BDRip 1080p]
  37. Writing library : x264 core 148
  38. Encoding settings : cabac=1 / ref=5 / deblock=1:-3:-3 / analyse=0x3:0x133 / me=umh / subme=10 / psy=1 / psy_rd=1.00:0.00 / mixed_ref=1 / me_range=32 / chroma_me=1 / trellis=2 / 8x8dct=1 / cqm=0 / deadzone=21,11 / fast_pskip=0 / chroma_qp_offset=-2 / threads=12 / lookahead_threads=3 / sliced_threads=0 / nr=0 / decimate=0 / interlaced=0 / bluray_compat=0 / constrained_intra=0 / bframes=16 / b_pyramid=2 / b_adapt=2 / b_bias=0 / direct=3 / weightb=1 / open_gop=0 / weightp=2 / keyint=240 / keyint_min=24 / scenecut=40 / intra_refresh=0 / rc_lookahead=60 / rc=crf / mbtree=0 / crf=14.0 / qcomp=0.60 / qpmin=0 / qpmax=69 / qpstep=4 / vbv_maxrate=62500 / vbv_bufsize=78125 / crf_max=0.0 / nal_hrd=none / filler=0 / ip_ratio=1.40 / pb_ratio=1.30 / aq=2:1.00
  39. Language : Spanish
  40. Default : Yes
  41. Forced : No
  42. Color range : Limited
  43. Color primaries : BT.709
  44. Transfer characteristics : BT.709
  45. Matrix coefficients : BT.709
  46.  
  47. Audio #1
  48. ID : 2
  49. Format : AC-3
  50. Format/Info : Audio Coding 3
  51. Commercial name : Dolby Digital
  52. Codec ID : A_AC3
  53. Duration : 1 h 41 min
  54. Bit rate mode : Constant
  55. Bit rate : 448 kb/s
  56. Channel(s) : 6 channels
  57. Channel layout : L R C LFE Ls Rs
  58. Sampling rate : 48.0 kHz
  59. Frame rate : 31.250 FPS (1536 SPF)
  60. Compression mode : Lossy
  61. Delay relative to video : 24 ms
  62. Stream size : 326 MiB (3%)
  63. Title : Castellano 5.1
  64. Language : Spanish
  65. Service kind : Complete Main
  66. Default : Yes
  67. Forced : No
  68.  
  69. Audio #2
  70. ID : 3
  71. Format : AC-3
  72. Format/Info : Audio Coding 3
  73. Commercial name : Dolby Digital
  74. Codec ID : A_AC3
  75. Duration : 1 h 41 min
  76. Bit rate mode : Constant
  77. Bit rate : 640 kb/s
  78. Channel(s) : 6 channels
  79. Channel layout : L R C LFE Ls Rs
  80. Sampling rate : 48.0 kHz
  81. Frame rate : 31.250 FPS (1536 SPF)
  82. Compression mode : Lossy
  83. Stream size : 465 MiB (5%)
  84. Title : Inglés 5.1
  85. Language : English
  86. Service kind : Complete Main
  87. Default : No
  88. Forced : No
  89.  
  90. Text #1
  91. ID : 4
  92. Format : PGS
  93. Muxing mode : zlib
  94. Codec ID : S_HDMV/PGS
  95. Codec ID/Info : Picture based subtitle format used on BDs/HD-DVDs
  96. Duration : 1 h 37 min
  97. Bit rate : 26.5 kb/s
  98. Count of elements : 2030
  99. Stream size : 18.5 MiB (0%)
  100. Title : Castellano
  101. Language : Spanish
  102. Default : No
  103. Forced : No
  104.  
  105. Text #2
  106. ID : 5
  107. Format : UTF-8
  108. Codec ID : S_TEXT/UTF8
  109. Codec ID/Info : UTF-8 Plain Text
  110. Duration : 1 h 35 min
  111. Bit rate : 49 b/s
  112. Count of elements : 981
  113. Stream size : 34.5 KiB (0%)
  114. Title : Inglés
  115. Language : English
  116. Default : No
  117. Forced : No
  118.  
  119. Menu
  120. 00:00:00.000 : :Chapter 01
  121. 00:11:46.039 : :Chapter 02
  122. 00:21:58.651 : :Chapter 03
  123. 00:34:27.399 : :Chapter 04
  124. 00:47:18.836 : :Chapter 05
  125. 00:54:41.945 : :Chapter 06
  126. 01:06:57.347 : :Chapter 07
  127. 01:25:39.801 : :Chapter 08
  128.  
  129.  
Advertisement
Add Comment
Please, Sign In to add comment
Advertisement