SHARE
TWEET

Untitled

a guest Jul 16th, 2019 68 Never
Not a member of Pastebin yet? Sign Up, it unlocks many cool features!
  1. General
  2. Complete name                            : Encode_3.mp4
  3. Format                                   : MPEG-4
  4. Format profile                           : Base Media
  5. Codec ID                                 : isom (qt  )
  6. File size                                : 1.96 GiB
  7. Duration                                 : 17 min 22 s
  8. Overall bit rate mode                    : Variable
  9. Overall bit rate                         : 16.1 Mb/s
  10.  
  11. Video
  12. ID                                       : 2
  13. Format                                   : AVC
  14. Format/Info                              : Advanced Video Codec
  15. Format profile                           : Baseline@L3.1
  16. Format settings                          : 1 Ref Frames
  17. Format settings, CABAC                   : No
  18. Format settings, ReFrames                : 1 frame
  19. Format settings, GOP                     : M=1, N=120
  20. Codec ID                                 : avc1
  21. Codec ID/Info                            : Advanced Video Coding
  22. Duration                                 : 17 min 22 s
  23. Bit rate                                 : 15.9 Mb/s
  24. Width                                    : 1 280 pixels
  25. Height                                   : 720 pixels
  26. Display aspect ratio                     : 16:9
  27. Frame rate                               : 60.000 FPS
  28. Color space                              : YUV
  29. Chroma subsampling                       : 4:2:0
  30. Bit depth                                : 8 bits
  31. Scan type                                : Progressive
  32. Bits/(Pixel*Frame)                       : 0.288
  33. Stream size                              : 1.93 GiB (99%)
  34. Language                                 : English
  35. Codec configuration box                  : avcC
  36.  
  37. Audio
  38. ID                                       : 1
  39. Format                                   : AAC LC
  40. Format/Info                              : Advanced Audio Codec Low Complexity
  41. Codec ID                                 : mp4a-40-2
  42. Duration                                 : 17 min 21 s
  43. Duration_FirstFrame                      : 21 ms
  44. Bit rate mode                            : Variable
  45. Bit rate                                 : 192 kb/s
  46. Channel(s)                               : 2 channels
  47. Channel layout                           : L R
  48. Sampling rate                            : 48.0 kHz
  49. Frame rate                               : 46.875 FPS (1024 SPF)
  50. Compression mode                         : Lossy
  51. Stream size                              : 23.5 MiB (1%)
  52. Language                                 : English
  53. Default                                  : Yes
  54. Alternate group                          : 1
RAW Paste Data
We use cookies for various purposes including analytics. By continuing to use Pastebin, you agree to our use of cookies as described in the Cookies Policy. OK, I Understand
 
Top