Interfilm

Untitled

Jun 6th, 2014
252
Never
Not a member of Pastebin yet? Sign Up, it unlocks many cool features!
  1. Общее
  2. Sein.letztes.Rennen.2013.Blu.Ray.720p.CINEMANIA.mkv
  3. Формат : Matroska
  4. Версия формата : Version 4 / Version 2
  5. Размер файла : 3,08 Гбайт
  6. Продолжительность : 1 ч. 54 м.
  7. Общий поток : 3849 Кбит/сек
  8. Название фильма : Release Group CINEMANIA
  9. Дата кодирования : UTC 2014-06-06 19:43:38
  10. Программа кодирования : mkvmerge v6.9.1 ('Blue Panther') 64bit built on Apr 18 2014 18:23:38
  11. Библиотека кодирования : libebml v1.3.0 + libmatroska v1.4.1
  12.  
  13. Видео
  14. Идентификатор : 1
  15. Формат : AVC
  16. Формат/Информация : Advanced Video Codec
  17. Профиль формата : High@L4.1
  18. Параметр CABAC формата : Да
  19. Параметр ReFrames формата : 5 кадров
  20. Идентификатор кодека : V_MPEG4/ISO/AVC
  21. Продолжительность : 1 ч. 54 м.
  22. Битрейт : 3125 Кбит/сек
  23. Ширина : 1280 пикселей
  24. Высота : 544 пикселя
  25. Соотношение сторон : 2,35:1
  26. Режим частоты кадров : Постоянный
  27. Частота кадров : 24,000 кадра/сек
  28. Цветовое пространство : YUV
  29. Субдискретизация насыщенности : 4:2:0
  30. Битовая глубина : 8 бит
  31. Тип развёртки : Прогрессивная
  32. Бит/(Пиксели*Кадры) : 0.120
  33. Размер потока : 1,60 Гбайт (52%)
  34. Заголовок : Release Group CINEMANIA
  35. Библиотека кодирования : x264 core 142 r2409 d6b4e63
  36. Настройки программы : cabac=1 / ref=5 / deblock=1:-1:-1 / analyse=0x3:0x133 / me=umh / subme=7 / psy=1 / psy_rd=1.00:0.15 / mixed_ref=1 / me_range=16 / chroma_me=1 / trellis=1 / 8x8dct=1 / cqm=0 / deadzone=21,11 / fast_pskip=0 / chroma_qp_offset=-3 / threads=9 / lookahead_threads=1 / sliced_threads=0 / nr=0 / decimate=1 / interlaced=0 / bluray_compat=0 / constrained_intra=0 / bframes=3 / b_pyramid=2 / b_adapt=1 / b_bias=0 / direct=1 / weightb=1 / open_gop=0 / weightp=2 / keyint=250 / keyint_min=24 / scenecut=40 / intra_refresh=0 / rc_lookahead=40 / rc=crf / mbtree=1 / crf=20.0 / qcomp=0.60 / qpmin=0 / qpmax=69 / qpstep=4 / ip_ratio=1.40 / aq=1:1.00
  37. Default : Да
  38. Forced : Нет
  39.  
  40. Аудио #1
  41. Идентификатор : 2
  42. Формат : AC-3
  43. Формат/Информация : Audio Coding 3
  44. Расширение режима : CM (complete main)
  45. Параметр Endianness формата : Big
  46. Идентификатор кодека : A_AC3
  47. Продолжительность : 1 ч. 54 м.
  48. Вид битрейта : Постоянный
  49. Битрейт : 256 Кбит/сек
  50. Каналы : 2 канала
  51. Расположение каналов : Front: L R
  52. Частота : 48,0 КГц
  53. Битовая глубина : 16 бит
  54. Метод сжатия : С потерями
  55. Размер потока : 210 Мбайт (7%)
  56. Заголовок : R.A.I.M
  57. Язык : Russian
  58. Default : Да
  59. Forced : Да
  60.  
  61. Аудио #2
  62. Идентификатор : 3
  63. Формат : DTS
  64. Формат/Информация : Digital Theater Systems
  65. Режим : 16
  66. Параметр Endianness формата : Big
  67. Идентификатор кодека : A_DTS
  68. Продолжительность : 1 ч. 54 м.
  69. Вид битрейта : Постоянный
  70. Битрейт : 1509 Кбит/сек
  71. Каналы : 6 каналов
  72. Расположение каналов : Front: L C R, Side: L R, LFE
  73. Частота : 48,0 КГц
  74. Битовая глубина : 24 бит
  75. Метод сжатия : С потерями
  76. Размер потока : 1,21 Гбайт (39%)
  77. Язык : German
  78. Default : Нет
  79. Forced : Нет
  80.  
  81. Текст
  82. Идентификатор : 4
  83. Формат : UTF-8
  84. Идентификатор кодека : S_TEXT/UTF8
  85. Идентификатор кодека/Информация : UTF-8 Plain Text
  86. Заголовок : Максим Вареник
  87. Язык : Russian
  88. Default : Нет
  89. Forced : Нет
  90.  
  91. Меню
  92. 00:00:00.000 : de:00:00:00.000
  93. 00:11:04.417 : de:00:11:04.417
  94. 00:21:08.667 : de:00:21:08.667
  95. 00:31:33.875 : de:00:31:33.875
  96. 00:42:28.625 : de:00:42:28.625
  97. 00:52:22.042 : de:00:52:22.042
  98. 01:02:21.667 : de:01:02:21.667
  99. 01:12:41.417 : de:01:12:41.417
  100. 01:22:20.500 : de:01:22:20.500
  101. 01:31:07.292 : de:01:31:07.292
  102. 01:41:14.167 : de:01:41:14.167
  103. 01:49:28.542 : de:01:49:28.542
RAW Paste Data