Advertisement
Guest User

Untitled

a guest
Jan 8th, 2022
30
Never
Not a member of Pastebin yet? Sign Up, it unlocks many cool features!
  1. Общее
  2. Уникальный идентификатор : 59097774793459429360741313254867231582 (0x2C75D141EBFEA63C7321F2259166635E)
  3. Полное имя : Eye.Of.The.Needle.1981.BFI.BluRay.REMUX.1080p.KNG.mkv
  4. Формат : Matroska
  5. Версия формата : Version 4
  6. Размер файла : 22,8 Гбайт
  7. Продолжительность : 1 ч. 51 м.
  8. Режим общего битрейта : Переменный
  9. Общий поток : 29,3 Мбит/сек
  10. Название фильма : Eye of the Needle 1981
  11. Дата кодирования : UTC 2021-12-21 05:14:43
  12. Программа кодирования : mkvmerge v61.0.0 ('So') 64-bit
  13. Библиотека кодирования : libebml v1.4.2 + libmatroska v1.6.4
  14. Обложка : Yes
  15. Attachments : cover.jpg
  16.  
  17. Видео
  18. Идентификатор : 1
  19. Формат : AVC
  20. Формат/Информация : Advanced Video Codec
  21. Профиль формата : High@L4.1
  22. Настройки формата : CABAC / 4 Ref Frames
  23. Параметр CABAC формата : Да
  24. Параметр RefFrames формата : 4 кадра
  25. Идентификатор кодека : V_MPEG4/ISO/AVC
  26. Продолжительность : 1 ч. 51 м.
  27. Вид битрейта : Переменный
  28. Битрейт : 27,7 Мбит/сек
  29. Максимальный битрейт : 33,0 Мбит/сек
  30. Ширина : 1 920 пикселей
  31. Высота : 1 080 пикселей
  32. Соотношение сторон : 16:9
  33. Режим частоты кадров : Постоянный
  34. Частота кадров : 23,976 (24000/1001) кадра/сек
  35. Стандарт вещания : NTSC
  36. Цветовое пространство : YUV
  37. Субдискретизация насыщенности : 4:2:0
  38. Битовая глубина : 8 бит
  39. Тип развёртки : Прогрессивная
  40. Бит/(Пиксели*Кадры) : 0.557
  41. Размер потока : 21,6 Гбайт (95%)
  42. Заголовок : GBR / BFI Video / v77
  43. Язык : English
  44. Default : Да
  45. Forced : Нет
  46. Цветовой диапазон : Limited
  47. Основные цвета : BT.709
  48. Характеристики трансфера : BT.709
  49. Коэффициенты матрицы : BT.709
  50.  
  51. Аудио #1
  52. Идентификатор : 2
  53. Формат : AC-3
  54. Формат/Информация : Audio Coding 3
  55. Коммерческое название : Dolby Digital
  56. Идентификатор кодека : A_AC3
  57. Продолжительность : 1 ч. 51 м.
  58. Вид битрейта : Постоянный
  59. Битрейт : 192 Кбит/сек
  60. Каналы : 2 канала
  61. Channel layout : L R
  62. Частота : 48,0 КГц
  63. Частота кадров : 31,250 кадров/сек (1536 SPF)
  64. Метод сжатия : С потерями
  65. Размер потока : 153 Мбайт (1%)
  66. Заголовок : DVO - HTB+
  67. Язык : Russian
  68. Service kind : Complete Main
  69. Default : Да
  70. Forced : Нет
  71.  
  72. Аудио #2
  73. Идентификатор : 3
  74. Формат : FLAC
  75. Формат/Информация : Free Lossless Audio Codec
  76. Идентификатор кодека : A_FLAC
  77. Продолжительность : 1 ч. 51 м.
  78. Вид битрейта : Переменный
  79. Битрейт : 1 360 Кбит/сек
  80. Каналы : 2 канала
  81. Channel layout : L R
  82. Частота : 48,0 КГц
  83. Частота кадров : 11,719 кадров/сек (4096 SPF)
  84. Битовая глубина : 24 бит
  85. Метод сжатия : Без потерь
  86. Размер потока : 1,06 Гбайт (5%)
  87. Заголовок : Original
  88. Библиотека кодирования : libFLAC 1.3.2 (UTC 2017-01-01)
  89. Язык : English
  90. Default : Нет
  91. Forced : Нет
  92.  
  93. Текст #1
  94. Идентификатор : 4
  95. Формат : UTF-8
  96. Идентификатор кодека : S_TEXT/UTF8
  97. Идентификатор кодека/Информация : UTF-8 Plain Text
  98. Продолжительность : 1 ч. 48 м.
  99. Битрейт : 36 бит/сек
  100. Count of elements : 1073
  101. Размер потока : 28,9 Кбайт (0%)
  102. Заголовок : Full
  103. Язык : English
  104. Default : Нет
  105. Forced : Нет
  106.  
  107. Текст #2
  108. Идентификатор : 5
  109. Формат : PGS
  110. Режим смешивания : zlib
  111. Идентификатор кодека : S_HDMV/PGS
  112. Идентификатор кодека/Информация : Picture based subtitle format used on BDs/HD-DVDs
  113. Продолжительность : 1 ч. 48 м.
  114. Битрейт : 22,3 Кбит/сек
  115. Count of elements : 2100
  116. Размер потока : 17,4 Мбайт (0%)
  117. Заголовок : SDH
  118. Язык : English
  119. Default : Нет
  120. Forced : Нет
  121.  
  122. Меню
  123. 00:00:00.000 : :Chapter 01
  124. 00:09:10.550 : :Chapter 02
  125. 00:20:39.238 : :Chapter 03
  126. 00:33:55.032 : :Chapter 04
  127. 00:42:11.528 : :Chapter 05
  128. 00:49:55.992 : :Chapter 06
  129. 01:03:08.784 : :Chapter 07
  130. 01:08:08.083 : :Chapter 08
  131. 01:18:03.678 : :Chapter 09
  132. 01:27:35.249 : :Chapter 10
  133. 01:40:59.052 : :Chapter 11
  134. 01:49:33.566 : :Chapter 12
  135.  
  136.  
Advertisement
Advertisement
Advertisement
RAW Paste Data Copied
Advertisement