Guest User

Untitled

a guest
Dec 4th, 2013
253
Never
Not a member of Pastebin yet? Sign Up, it unlocks many cool features!
  1. C:\Users\Emrah\Desktop>ffmpeg.exe -i d1.mp4 -i logo.png
  2. ffmpeg version N-58115-g150c554 Copyright (c) 2000-2013 the FFmpeg developers
  3. built on Nov 15 2013 18:07:27 with gcc 4.8.2 (GCC)
  4. configuration: --enable-gpl --enable-version3 --disable-w32threads --enable-av
  5. isynth --enable-bzlib --enable-fontconfig --enable-frei0r --enable-gnutls --enab
  6. le-iconv --enable-libass --enable-libbluray --enable-libcaca --enable-libfreetyp
  7. e --enable-libgsm --enable-libilbc --enable-libmodplug --enable-libmp3lame --ena
  8. ble-libopencore-amrnb --enable-libopencore-amrwb --enable-libopenjpeg --enable-l
  9. ibopus --enable-librtmp --enable-libschroedinger --enable-libsoxr --enable-libsp
  10. eex --enable-libtheora --enable-libtwolame --enable-libvidstab --enable-libvo-aa
  11. cenc --enable-libvo-amrwbenc --enable-libvorbis --enable-libvpx --enable-libwavp
  12. ack --enable-libx264 --enable-libxavs --enable-libxvid --enable-zlib
  13. libavutil 52. 53.100 / 52. 53.100
  14. libavcodec 55. 43.100 / 55. 43.100
  15. libavformat 55. 21.100 / 55. 21.100
  16. libavdevice 55. 5.100 / 55. 5.100
  17. libavfilter 3. 91.100 / 3. 91.100
  18. libswscale 2. 5.101 / 2. 5.101
  19. libswresample 0. 17.104 / 0. 17.104
  20. libpostproc 52. 3.100 / 52. 3.100
  21. Input #0, mov,mp4,m4a,3gp,3g2,mj2, from 'd1.mp4':
  22. Metadata:
  23. major_brand : isom
  24. minor_version : 512
  25. compatible_brands: isomiso2avc1mp41
  26. encoder : Lavf55.21.100
  27. Duration: 00:02:03.30, start: 0.000000, bitrate: 4049 kb/s
  28. Stream #0:0(und): Video: h264 (High) (avc1 / 0x31637661), yuv420p, 1920x1080
  29. , 3916 kb/s, 25 fps, 25 tbr, 12800 tbn, 50 tbc (default)
  30. Metadata:
  31. handler_name : VideoHandler
  32. Stream #0:1(und): Audio: aac (mp4a / 0x6134706D), 44100 Hz, stereo, fltp, 12
  33. 8 kb/s (default)
  34. Metadata:
  35. handler_name : SoundHandler
  36. Input #1, image2, from 'logo.png':
  37. Duration: 00:00:00.04, start: 0.000000, bitrate: N/A
  38. Stream #1:0: Video: png, rgba, 96x96, 25 tbr, 25 tbn, 25 tbc
  39. At least one output file must be specified
RAW Paste Data