SHARE
TWEET

DVB-T1 M1 HD MediaInfo

a guest Jul 22nd, 2019 87 Never
Not a member of Pastebin yet? Sign Up, it unlocks many cool features!
  1. General
  2. ID                                       : 1 (0x1)
  3. Complete name                            : M1 HD (hun).ts
  4. Format                                   : MPEG-TS
  5. File size                                : 46.8 MiB
  6. Duration                                 : 1 min 2 s
  7. Overall bit rate mode                    : Variable
  8. Overall bit rate                         : 6 246 kb/s
  9.  
  10. Video
  11. ID                                       : 1001 (0x3E9)
  12. Menu ID                                  : 100 (0x64)
  13. Format                                   : AVC
  14. Format/Info                              : Advanced Video Codec
  15. Format profile                           : High@L4
  16. Format settings                          : CABAC / 4 Ref Frames
  17. Format settings, CABAC                   : Yes
  18. Format settings, Reference frames        : 4 frames
  19. Codec ID                                 : 27
  20. Duration                                 : 1 min 2 s
  21. Width                                    : 1 440 pixels
  22. Height                                   : 1 080 pixels
  23. Display aspect ratio                     : 16:9
  24. Frame rate                               : 25.000 FPS
  25. Color space                              : YUV
  26. Chroma subsampling                       : 4:2:0
  27. Bit depth                                : 8 bits
  28. Scan type                                : MBAFF
  29. Scan type, store method                  : Interleaved fields
  30. Scan order                               : Top Field First
  31. Color range                              : Limited
  32. Color primaries                          : BT.709
  33. Transfer characteristics                 : BT.709
  34. Matrix coefficients                      : BT.709
  35.  
  36. Audio #1
  37. ID                                       : 1002 (0x3EA)
  38. Menu ID                                  : 100 (0x64)
  39. Format                                   : MPEG Audio
  40. Format version                           : Version 1
  41. Format profile                           : Layer 2
  42. Format settings                          : Joint stereo
  43. Codec ID                                 : 3
  44. Duration                                 : 1 min 3 s
  45. Bit rate mode                            : Constant
  46. Bit rate                                 : 128 kb/s
  47. Channel(s)                               : 2 channels
  48. Sampling rate                            : 48.0 kHz
  49. Frame rate                               : 41.667 FPS (1152 SPF)
  50. Compression mode                         : Lossy
  51. Delay relative to video                  : -544 ms
  52. Stream size                              : 986 KiB (2%)
  53. Language                                 : Hungarian
  54.  
  55. Audio #2
  56. ID                                       : 1004 (0x3EC)
  57. Menu ID                                  : 100 (0x64)
  58. Format                                   : AC-3
  59. Format/Info                              : Audio Coding 3
  60. Commercial name                          : Dolby Digital
  61. Codec ID                                 : 6
  62. Duration                                 : 1 min 3 s
  63. Bit rate mode                            : Constant
  64. Bit rate                                 : 384 kb/s
  65. Channel(s)                               : 2 channels
  66. Channel layout                           : L R
  67. Sampling rate                            : 48.0 kHz
  68. Frame rate                               : 31.250 FPS (1536 SPF)
  69. Bit depth                                : 16 bits
  70. Compression mode                         : Lossy
  71. Delay relative to video                  : -540 ms
  72. Stream size                              : 2.89 MiB (6%)
  73. Language                                 : Hungarian
  74. Service kind                             : Complete Main
  75.  
  76. Audio #3
  77. ID                                       : 1006 (0x3EE)
  78. Menu ID                                  : 100 (0x64)
  79. Format                                   : AAC LC SBR
  80. Format/Info                              : Advanced Audio Codec Low Complexity with Spectral Band Replication
  81. Commercial name                          : HE-AAC
  82. Format settings                          : NBC
  83. Muxing mode                              : LATM
  84. Codec ID                                 : 17-2
  85. Duration                                 : 1 min 2 s
  86. Bit rate mode                            : Variable
  87. Channel(s)                               : 2 channels
  88. Channel layout                           : L R
  89. Sampling rate                            : 48.0 kHz
  90. Frame rate                               : 23.438 FPS (2048 SPF)
  91. Compression mode                         : Lossy
  92. Delay relative to video                  : -324 ms
  93. Language                                 : Multiple languages
RAW Paste Data
We use cookies for various purposes including analytics. By continuing to use Pastebin, you agree to our use of cookies as described in the Cookies Policy. OK, I Understand
 
Top