TheRealDudeMe

Untitled

Oct 30th, 2019
189
Never
Not a member of Pastebin yet? Sign Up, it unlocks many cool features!
  1. General
  2. Unique ID : 61543710673628656017427624881159343617 (0x2E4CE33500A6758BA489574946430E01)
  3. Complete name : Baywatch.2017.Extended.REPACK.2160p.UHD.BluRay.REMUX.HDR.HEVC.Atmos-EPSiLON.mkv
  4. Format : Matroska
  5. Format version : Version 4 / Version 2
  6. File size : 47.5 GiB
  7. Duration : 2h 1mn
  8. Overall bit rate mode : Variable
  9. Overall bit rate : 56.0 Mbps
  10. Movie name : Baywatch (2017)
  11. Encoded date : UTC 2019-10-19 05:32:33
  12. Writing application : mkvmerge v34.0.0 ('Sight and Seen') 64-bit
  13. Writing library : libebml v1.3.9 + libmatroska v1.5.2
  14. IMDB : tt1469304
  15. TMDB : movie/339846
  16.  
  17. Video
  18. ID : 1
  19. Format : HEVC
  20. Format/Info : High Efficiency Video Coding
  21. Format profile : Main 10@L5.1@High
  22. Codec ID : V_MPEGH/ISO/HEVC
  23. Duration : 2h 1mn
  24. Bit rate : 49.3 Mbps
  25. Width : 3 840 pixels
  26. Height : 2 160 pixels
  27. Display aspect ratio : 16:9
  28. Frame rate mode : Constant
  29. Frame rate : 23.976 (24000/1001) fps
  30. Color space : YUV
  31. Chroma subsampling : 4:2:0
  32. Bit depth : 10 bits
  33. Bits/(Pixel*Frame) : 0.248
  34. Stream size : 41.8 GiB (88%)
  35. Title : MPEG-H HEVC Video / 49301 kbps / 2160p / 23.976 fps / 16:9 / Main 10 Profile 5.1 High / 4:2:0 / 10 bits / HDR / BT.2020
  36. Language : English
  37. Default : No
  38. Forced : No
  39. Color range : Limited
  40. Color primaries : BT.2020
  41. Matrix coefficients : BT.2020 non-constant
  42.  
  43. Audio #1
  44. ID : 2
  45. Format : Atmos / TrueHD
  46. Codec ID : A_TRUEHD
  47. Duration : 2h 1mn
  48. Bit rate mode : Variable
  49. Bit rate : 4 685 Kbps
  50. Maximum bit rate : 7 380 Kbps
  51. Channel(s) : Object Based / 8 channels
  52. Channel positions : Object Based / Front: L C R, Side: L R, Back: L R, LFE
  53. Sampling rate : / 48.0 KHz
  54. Frame rate : 1 200.000 fps (40 spf)
  55. Compression mode : Lossless
  56. Stream size : 3.97 GiB (8%)
  57. Title : Dolby Atmos/TrueHD Audio / 7.1-Atmos / 48 kHz / 5325 kbps / 24-bit
  58. Language : English
  59. Default : Yes
  60. Forced : No
  61.  
  62. Audio #2
  63. ID : 3
  64. Format : AC-3
  65. Format/Info : Audio Coding 3
  66. Mode extension : CM (complete main)
  67. Format settings, Endianness : Big
  68. Codec ID : A_AC3
  69. Duration : 2h 1mn
  70. Bit rate mode : Constant
  71. Bit rate : 640 Kbps
  72. Channel(s) : 6 channels
  73. Channel positions : Front: L C R, Side: L R, LFE
  74. Sampling rate : 48.0 KHz
  75. Frame rate : 31.250 fps (1536 spf)
  76. Compression mode : Lossy
  77. Stream size : 556 MiB (1%)
  78. Title : Compatibility Track / Dolby Digital Audio / 5.1-EX / 48 kHz / 640 kbps
  79. Language : English
  80. Default : No
  81. Forced : No
  82.  
  83. Text #1
  84. ID : 4
  85. Format : PGS
  86. Codec ID : S_HDMV/PGS
  87. Codec ID/Info : Picture based subtitle format used on BDs/HD-DVDs
  88. Duration : 35mn 19s
  89. Bit rate : 348 bps
  90. Count of elements : 14
  91. Stream size : 90.3 KiB (0%)
  92. Title : Forced
  93. Language : English
  94. Default : Yes
  95. Forced : Yes
  96.  
  97. Text #2
  98. ID : 5
  99. Format : PGS
  100. Codec ID : S_HDMV/PGS
  101. Codec ID/Info : Picture based subtitle format used on BDs/HD-DVDs
  102. Duration : 1h 54mn
  103. Bit rate : 50.7 Kbps
  104. Count of elements : 4224
  105. Stream size : 41.4 MiB (0%)
  106. Language : English
  107. Default : No
  108. Forced : No
  109.  
  110. Text #3
  111. ID : 6
  112. Format : PGS
  113. Codec ID : S_HDMV/PGS
  114. Codec ID/Info : Picture based subtitle format used on BDs/HD-DVDs
  115. Duration : 1h 56mn
  116. Bit rate : 56.5 Kbps
  117. Count of elements : 4858
  118. Stream size : 47.2 MiB (0%)
  119. Title : SDH
  120. Language : English
  121. Default : No
  122. Forced : No
  123.  
  124. Text #4
  125. ID : 7
  126. Format : PGS
  127. Codec ID : S_HDMV/PGS
  128. Codec ID/Info : Picture based subtitle format used on BDs/HD-DVDs
  129. Duration : 2h 0mn
  130. Bit rate : 20.7 Kbps
  131. Count of elements : 3584
  132. Stream size : 17.8 MiB (0%)
  133. Language : Arabic
  134. Default : No
  135. Forced : No
  136.  
  137. Text #5
  138. ID : 8
  139. Format : PGS
  140. Codec ID : S_HDMV/PGS
  141. Codec ID/Info : Picture based subtitle format used on BDs/HD-DVDs
  142. Duration : 2h 0mn
  143. Bit rate : 27.3 Kbps
  144. Count of elements : 3444
  145. Stream size : 23.5 MiB (0%)
  146. Title : Cantonese
  147. Language : Chinese
  148. Default : No
  149. Forced : No
  150.  
  151. Text #6
  152. ID : 9
  153. Format : PGS
  154. Codec ID : S_HDMV/PGS
  155. Codec ID/Info : Picture based subtitle format used on BDs/HD-DVDs
  156. Duration : 2h 0mn
  157. Bit rate : 32.0 Kbps
  158. Count of elements : 3662
  159. Stream size : 27.5 MiB (0%)
  160. Title : Mandarin Traditional
  161. Language : Chinese
  162. Default : No
  163. Forced : No
  164.  
  165. Text #7
  166. ID : 10
  167. Format : PGS
  168. Codec ID : S_HDMV/PGS
  169. Codec ID/Info : Picture based subtitle format used on BDs/HD-DVDs
  170. Duration : 2h 0mn
  171. Bit rate : 39.6 Kbps
  172. Count of elements : 3499
  173. Stream size : 34.1 MiB (0%)
  174. Language : Czech
  175. Default : No
  176. Forced : No
  177.  
  178. Text #8
  179. ID : 11
  180. Format : PGS
  181. Codec ID : S_HDMV/PGS
  182. Codec ID/Info : Picture based subtitle format used on BDs/HD-DVDs
  183. Duration : 2h 0mn
  184. Bit rate : 37.4 Kbps
  185. Count of elements : 2818
  186. Stream size : 32.2 MiB (0%)
  187. Language : Danish
  188. Default : No
  189. Forced : No
  190.  
  191. Text #9
  192. ID : 12
  193. Format : PGS
  194. Codec ID : S_HDMV/PGS
  195. Codec ID/Info : Picture based subtitle format used on BDs/HD-DVDs
  196. Duration : 1h 59mn
  197. Bit rate : 34.7 Kbps
  198. Count of elements : 2642
  199. Stream size : 29.7 MiB (0%)
  200. Language : Dutch
  201. Default : No
  202. Forced : No
  203.  
  204. Text #10
  205. ID : 13
  206. Format : PGS
  207. Codec ID : S_HDMV/PGS
  208. Codec ID/Info : Picture based subtitle format used on BDs/HD-DVDs
  209. Duration : 1h 59mn
  210. Bit rate : 43.8 Kbps
  211. Count of elements : 4252
  212. Stream size : 37.4 MiB (0%)
  213. Language : Estonian
  214. Default : No
  215. Forced : No
  216.  
  217. Text #11
  218. ID : 14
  219. Format : PGS
  220. Codec ID : S_HDMV/PGS
  221. Codec ID/Info : Picture based subtitle format used on BDs/HD-DVDs
  222. Duration : 1h 59mn
  223. Bit rate : 42.7 Kbps
  224. Count of elements : 4246
  225. Stream size : 36.5 MiB (0%)
  226. Language : Finnish
  227. Default : No
  228. Forced : No
  229.  
  230. Text #12
  231. ID : 15
  232. Format : PGS
  233. Codec ID : S_HDMV/PGS
  234. Codec ID/Info : Picture based subtitle format used on BDs/HD-DVDs
  235. Duration : 1h 50mn
  236. Bit rate : 49.0 Kbps
  237. Count of elements : 4422
  238. Stream size : 38.7 MiB (0%)
  239. Title : Canadian
  240. Language : French
  241. Default : No
  242. Forced : No
  243.  
  244. Text #13
  245. ID : 16
  246. Format : PGS
  247. Codec ID : S_HDMV/PGS
  248. Codec ID/Info : Picture based subtitle format used on BDs/HD-DVDs
  249. Duration : 2h 0mn
  250. Bit rate : 34.8 Kbps
  251. Count of elements : 3734
  252. Stream size : 30.0 MiB (0%)
  253. Title : Parisian
  254. Language : French
  255. Default : No
  256. Forced : No
  257.  
  258. Text #14
  259. ID : 17
  260. Format : PGS
  261. Codec ID : S_HDMV/PGS
  262. Codec ID/Info : Picture based subtitle format used on BDs/HD-DVDs
  263. Duration : 1h 59mn
  264. Bit rate : 50.1 Kbps
  265. Count of elements : 4252
  266. Stream size : 42.9 MiB (0%)
  267. Language : German
  268. Default : No
  269. Forced : No
  270.  
  271. Text #15
  272. ID : 18
  273. Format : PGS
  274. Codec ID : S_HDMV/PGS
  275. Codec ID/Info : Picture based subtitle format used on BDs/HD-DVDs
  276. Duration : 1h 59mn
  277. Bit rate : 40.9 Kbps
  278. Count of elements : 3285
  279. Stream size : 35.0 MiB (0%)
  280. Language : Greek
  281. Default : No
  282. Forced : No
  283.  
  284. Text #16
  285. ID : 19
  286. Format : PGS
  287. Codec ID : S_HDMV/PGS
  288. Codec ID/Info : Picture based subtitle format used on BDs/HD-DVDs
  289. Duration : 1h 58mn
  290. Bit rate : 31.1 Kbps
  291. Count of elements : 4268
  292. Stream size : 26.3 MiB (0%)
  293. Language : Hebrew
  294. Default : No
  295. Forced : No
  296.  
  297. Text #17
  298. ID : 20
  299. Format : PGS
  300. Codec ID : S_HDMV/PGS
  301. Codec ID/Info : Picture based subtitle format used on BDs/HD-DVDs
  302. Duration : 1h 59mn
  303. Bit rate : 37.5 Kbps
  304. Count of elements : 4267
  305. Stream size : 32.1 MiB (0%)
  306. Language : Hindi
  307. Default : No
  308. Forced : No
  309.  
  310. Text #18
  311. ID : 21
  312. Format : PGS
  313. Codec ID : S_HDMV/PGS
  314. Codec ID/Info : Picture based subtitle format used on BDs/HD-DVDs
  315. Duration : 1h 59mn
  316. Bit rate : 45.4 Kbps
  317. Count of elements : 4260
  318. Stream size : 38.8 MiB (0%)
  319. Language : Hungarian
  320. Default : No
  321. Forced : No
  322.  
  323. Text #19
  324. ID : 22
  325. Format : PGS
  326. Codec ID : S_HDMV/PGS
  327. Codec ID/Info : Picture based subtitle format used on BDs/HD-DVDs
  328. Duration : 1h 59mn
  329. Bit rate : 40.5 Kbps
  330. Count of elements : 3436
  331. Stream size : 34.6 MiB (0%)
  332. Language : Icelandic
  333. Default : No
  334. Forced : No
  335.  
  336. Text #20
  337. ID : 23
  338. Format : PGS
  339. Codec ID : S_HDMV/PGS
  340. Codec ID/Info : Picture based subtitle format used on BDs/HD-DVDs
  341. Duration : 1h 59mn
  342. Bit rate : 41.8 Kbps
  343. Count of elements : 3462
  344. Stream size : 35.8 MiB (0%)
  345. Language : Italian
  346. Default : No
  347. Forced : No
  348.  
  349. Text #21
  350. ID : 24
  351. Format : PGS
  352. Codec ID : S_HDMV/PGS
  353. Codec ID/Info : Picture based subtitle format used on BDs/HD-DVDs
  354. Duration : 2h 0mn
  355. Bit rate : 24.8 Kbps
  356. Count of elements : 3522
  357. Stream size : 21.3 MiB (0%)
  358. Language : Korean
  359. Default : No
  360. Forced : No
  361.  
  362. Text #22
  363. ID : 25
  364. Format : PGS
  365. Codec ID : S_HDMV/PGS
  366. Codec ID/Info : Picture based subtitle format used on BDs/HD-DVDs
  367. Duration : 1h 59mn
  368. Bit rate : 43.4 Kbps
  369. Count of elements : 4260
  370. Stream size : 37.1 MiB (0%)
  371. Language : Latvian
  372. Default : No
  373. Forced : No
  374.  
  375. Text #23
  376. ID : 26
  377. Format : PGS
  378. Codec ID : S_HDMV/PGS
  379. Codec ID/Info : Picture based subtitle format used on BDs/HD-DVDs
  380. Duration : 2h 0mn
  381. Bit rate : 37.5 Kbps
  382. Count of elements : 3464
  383. Stream size : 32.3 MiB (0%)
  384. Language : Lithuanian
  385. Default : No
  386. Forced : No
  387.  
  388. Text #24
  389. ID : 27
  390. Format : PGS
  391. Codec ID : S_HDMV/PGS
  392. Codec ID/Info : Picture based subtitle format used on BDs/HD-DVDs
  393. Duration : 1h 59mn
  394. Bit rate : 49.9 Kbps
  395. Count of elements : 4260
  396. Stream size : 42.7 MiB (0%)
  397. Language : Malay
  398. Default : No
  399. Forced : No
  400.  
  401. Text #25
  402. ID : 28
  403. Format : PGS
  404. Codec ID : S_HDMV/PGS
  405. Codec ID/Info : Picture based subtitle format used on BDs/HD-DVDs
  406. Duration : 1h 59mn
  407. Bit rate : 37.5 Kbps
  408. Count of elements : 3406
  409. Stream size : 32.1 MiB (0%)
  410. Language : Norwegian
  411. Default : No
  412. Forced : No
  413.  
  414. Text #26
  415. ID : 29
  416. Format : PGS
  417. Codec ID : S_HDMV/PGS
  418. Codec ID/Info : Picture based subtitle format used on BDs/HD-DVDs
  419. Duration : 1h 51mn
  420. Bit rate : 34.9 Kbps
  421. Count of elements : 3228
  422. Stream size : 27.8 MiB (0%)
  423. Title : Brazilian
  424. Language : Portuguese
  425. Default : No
  426. Forced : No
  427.  
  428. Text #27
  429. ID : 30
  430. Format : PGS
  431. Codec ID : S_HDMV/PGS
  432. Codec ID/Info : Picture based subtitle format used on BDs/HD-DVDs
  433. Duration : 1h 59mn
  434. Bit rate : 49.7 Kbps
  435. Count of elements : 4258
  436. Stream size : 42.5 MiB (0%)
  437. Title : Iberian
  438. Language : Portuguese
  439. Default : No
  440. Forced : No
  441.  
  442. Text #28
  443. ID : 31
  444. Format : PGS
  445. Codec ID : S_HDMV/PGS
  446. Codec ID/Info : Picture based subtitle format used on BDs/HD-DVDs
  447. Duration : 2h 0mn
  448. Bit rate : 36.1 Kbps
  449. Count of elements : 3484
  450. Stream size : 31.1 MiB (0%)
  451. Language : Romanian
  452. Default : No
  453. Forced : No
  454.  
  455. Text #29
  456. ID : 32
  457. Format : PGS
  458. Codec ID : S_HDMV/PGS
  459. Codec ID/Info : Picture based subtitle format used on BDs/HD-DVDs
  460. Duration : 2h 0mn
  461. Bit rate : 37.3 Kbps
  462. Count of elements : 3504
  463. Stream size : 32.1 MiB (0%)
  464. Language : Russian
  465. Default : No
  466. Forced : No
  467.  
  468. Text #30
  469. ID : 33
  470. Format : PGS
  471. Codec ID : S_HDMV/PGS
  472. Codec ID/Info : Picture based subtitle format used on BDs/HD-DVDs
  473. Duration : 1h 59mn
  474. Bit rate : 33.3 Kbps
  475. Count of elements : 3444
  476. Stream size : 28.4 MiB (0%)
  477. Language : Slovak
  478. Default : No
  479. Forced : No
  480.  
  481. Text #31
  482. ID : 34
  483. Format : PGS
  484. Codec ID : S_HDMV/PGS
  485. Codec ID/Info : Picture based subtitle format used on BDs/HD-DVDs
  486. Duration : 1h 59mn
  487. Bit rate : 45.4 Kbps
  488. Count of elements : 4262
  489. Stream size : 38.8 MiB (0%)
  490. Title : Castilian
  491. Language : Spanish
  492. Default : No
  493. Forced : No
  494.  
  495. Text #32
  496. ID : 35
  497. Format : PGS
  498. Codec ID : S_HDMV/PGS
  499. Codec ID/Info : Picture based subtitle format used on BDs/HD-DVDs
  500. Duration : 1h 51mn
  501. Bit rate : 40.3 Kbps
  502. Count of elements : 3282
  503. Stream size : 32.1 MiB (0%)
  504. Title : Latin American
  505. Language : Spanish
  506. Default : No
  507. Forced : No
  508.  
  509. Text #33
  510. ID : 36
  511. Format : PGS
  512. Codec ID : S_HDMV/PGS
  513. Codec ID/Info : Picture based subtitle format used on BDs/HD-DVDs
  514. Duration : 1h 59mn
  515. Bit rate : 39.2 Kbps
  516. Count of elements : 3378
  517. Stream size : 33.5 MiB (0%)
  518. Language : Swedish
  519. Default : No
  520. Forced : No
  521.  
  522. Text #34
  523. ID : 37
  524. Format : PGS
  525. Codec ID : S_HDMV/PGS
  526. Codec ID/Info : Picture based subtitle format used on BDs/HD-DVDs
  527. Duration : 2h 0mn
  528. Bit rate : 30.6 Kbps
  529. Count of elements : 3454
  530. Stream size : 26.3 MiB (0%)
  531. Language : Thai
  532. Default : No
  533. Forced : No
  534.  
  535. Text #35
  536. ID : 38
  537. Format : PGS
  538. Codec ID : S_HDMV/PGS
  539. Codec ID/Info : Picture based subtitle format used on BDs/HD-DVDs
  540. Duration : 2h 0mn
  541. Bit rate : 42.2 Kbps
  542. Count of elements : 3508
  543. Stream size : 36.3 MiB (0%)
  544. Language : Turkish
  545. Default : No
  546. Forced : No
  547.  
  548. Text #36
  549. ID : 39
  550. Format : PGS
  551. Codec ID : S_HDMV/PGS
  552. Codec ID/Info : Picture based subtitle format used on BDs/HD-DVDs
  553. Duration : 1h 59mn
  554. Bit rate : 42.3 Kbps
  555. Count of elements : 4270
  556. Stream size : 36.2 MiB (0%)
  557. Language : Ukrainian
  558. Default : No
  559. Forced : No
  560.  
  561. Menu
  562. 00:00:00.000 : en:Chapter 1
  563. 00:08:55.535 : en:Chapter 2
  564. 00:16:54.347 : en:Chapter 3
  565. 00:21:01.802 : en:Chapter 4
  566. 00:29:40.946 : en:Chapter 5
  567. 00:38:03.615 : en:Chapter 6
  568. 00:44:55.067 : en:Chapter 7
  569. 00:50:33.447 : en:Chapter 8
  570. 01:01:29.936 : en:Chapter 9
  571. 01:11:48.804 : en:Chapter 10
  572. 01:19:44.655 : en:Chapter 11
  573. 01:29:00.794 : en:Chapter 12
  574. 01:35:23.176 : en:Chapter 13
  575. 01:44:31.640 : en:Chapter 14
  576. 01:50:07.267 : en:Chapter 15
  577. 01:54:52.427 : en:Chapter 16
RAW Paste Data