daily pastebin goal
16%
SHARE
TWEET

Untitled

asiautaf Jul 21st, 2016 53 Never
Not a member of Pastebin yet? Sign Up, it unlocks many cool features!
  1. Video
  2. ID                                       : 1
  3. Format                                   : AVC
  4. Format/Info                              : Advanced Video Codec
  5. Format profile                           : High@L4.0
  6. Format settings, CABAC                   : Yes
  7. Format settings, ReFrames                : 1 frame
  8. Format settings, GOP                     : M=1, N=30
  9. Codec ID                                 : avc1
  10. Codec ID/Info                            : Advanced Video Coding
  11. Duration                                 : 1h 4mn
  12. Bit rate                                 : 5 035 Kbps
  13. Width                                    : 1 920 pixels
  14. Height                                   : 1 080 pixels
  15. Display aspect ratio                     : 16:9
  16. Frame rate mode                          : Constant
  17. Frame rate                               : 29.970 fps
  18. Color space                              : YUV
  19. Chroma subsampling                       : 4:2:0
  20. Bit depth                                : 8 bits
  21. Scan type                                : Progressive
  22. Bits/(Pixel*Frame)                       : 0.081
  23. Stream size                              : 2.28 GiB (96%)
  24.  
  25. Audio
  26. ID                                       : 2
  27. Format                                   : AAC
  28. Format/Info                              : Advanced Audio Codec
  29. Format profile                           : LC
  30. Codec ID                                 : 40
  31. Duration                                 : 1h 4mn
  32. Bit rate mode                            : Constant
  33. Bit rate                                 : 192 Kbps
  34. Channel(s)                               : 2 channels
  35. Channel positions                        : Front: L R
  36. Sampling rate                            : 48.0 KHz
  37. Compression mode                         : Lossy
  38. Stream size                              : 87.8 MiB (4%)
RAW Paste Data
We use cookies for various purposes including analytics. By continuing to use Pastebin, you agree to our use of cookies as described in the Cookies Policy. OK, I Understand
 
Top