SHARE
TWEET

The Thing BluRay 720p

dirtyharrys Apr 19th, 2019 85 Never
Not a member of Pastebin yet? Sign Up, it unlocks many cool features!
  1. General
  2. Unique ID                   : 153971848291592679475473085332099281930 (0x73D5E639F3217AF63995C5F57925B40A)
  3. Complete name               : E:\QlJSVGhlVGhpbmc.mkv
  4. Format                      : Matroska
  5. Format version              : Version 4
  6. File size                   : 1.73 GiB
  7. Duration                    : 1 h 43 min
  8. Overall bit rate            : 2 403 kb/s
  9. Movie name                  : The Thing BR-RIP / The Thing BR-RIP
  10. Encoded date                : UTC 2019-04-18 07:12:36
  11. Writing application         : mkvmerge v30.1.0 ('Forever And More') 32-bit
  12. Writing library             : libebml v1.3.6 + libmatroska v1.4.9
  13. Copyright                   : Movies HDs 2019
  14. ARTIST                      : HarshLearner
  15.  
  16. Video
  17. ID                          : 1
  18. Format                      : AVC
  19. Format/Info                 : Advanced Video Codec
  20. Format profile              : High@L4.1
  21. Format settings             : CABAC / 4 Ref Frames
  22. Format settings, CABAC      : Yes
  23. Format settings, ReFrames   : 4 frames
  24. Codec ID                    : V_MPEG4/ISO/AVC
  25. Duration                    : 1 h 43 min
  26. Bit rate                    : 1 500 kb/s
  27. Width                       : 1 280 pixels
  28. Height                      : 534 pixels
  29. Display aspect ratio        : 2.40:1
  30. Original display aspect rat : 2.40:1
  31. Frame rate mode             : Constant
  32. Frame rate                  : 23.976 (23976/1000) FPS
  33. Color space                 : YUV
  34. Chroma subsampling          : 4:2:0
  35. Bit depth                   : 8 bits
  36. Scan type                   : Progressive
  37. Bits/(Pixel*Frame)          : 0.092
  38. Stream size                 : 1.08 GiB (62%)
  39. Title                       : The Thing
  40. Writing library             : x264 core 152 r2851M ba24899
  41. Default                     : Yes
  42. Forced                      : No
  43.  
  44. Audio #1
  45. ID                          : 2
  46. Format                      : AC-3
  47. Format/Info                 : Audio Coding 3
  48. Commercial name             : Dolby Digital
  49. Codec ID                    : A_AC3
  50. Duration                    : 1 h 43 min
  51. Bit rate mode               : Constant
  52. Bit rate                    : 448 kb/s
  53. Channel(s)                  : 6 channels
  54. Channel layout              : L R C LFE Ls Rs
  55. Sampling rate               : 48.0 kHz
  56. Frame rate                  : 31.250 FPS (1536 SPF)
  57. Bit depth                   : 16 bits
  58. Compression mode            : Lossy
  59. Stream size                 : 330 MiB (19%)
  60. Language                    : English
  61. Service kind                : Complete Main
  62. Default                     : No
  63. Forced                      : No
  64.  
  65. Audio #2
  66. ID                          : 3
  67. Format                      : AC-3
  68. Format/Info                 : Audio Coding 3
  69. Commercial name             : Dolby Digital
  70. Codec ID                    : A_AC3
  71. Duration                    : 1 h 43 min
  72. Bit rate mode               : Constant
  73. Bit rate                    : 448 kb/s
  74. Channel(s)                  : 6 channels
  75. Channel layout              : L R C LFE Ls Rs
  76. Sampling rate               : 48.0 kHz
  77. Frame rate                  : 31.250 FPS (1536 SPF)
  78. Bit depth                   : 16 bits
  79. Compression mode            : Lossy
  80. Stream size                 : 330 MiB (19%)
  81. Language                    : Spanish
  82. Service kind                : Complete Main
  83. Default                     : Yes
  84. Forced                      : Yes
  85.  
  86. Text #1
  87. ID                          : 4
  88. Format                      : PGS
  89. Muxing mode                 : zlib
  90. Codec ID                    : S_HDMV/PGS
  91. Codec ID/Info               : Picture based subtitle format used on BDs/HD-DVDs
  92. Duration                    : 1 h 36 min
  93. Bit rate                    : 14.6 kb/s
  94. Count of elements           : 1450
  95. Stream size                 : 10.0 MiB (1%)
  96. Language                    : Spanish
  97. Default                     : No
  98. Forced                      : No
  99.  
  100. Text #2
  101. ID                          : 5
  102. Format                      : PGS
  103. Muxing mode                 : zlib
  104. Codec ID                    : S_HDMV/PGS
  105. Codec ID/Info               : Picture based subtitle format used on BDs/HD-DVDs
  106. Duration                    : 1 h 36 min
  107. Bit rate                    : 1 655 b/s
  108. Count of elements           : 182
  109. Stream size                 : 1.14 MiB (0%)
  110. Language                    : Spanish
  111. Default                     : No
  112. Forced                      : No
  113.  
  114. Text #3
  115. ID                          : 6
  116. Format                      : UTF-8
  117. Codec ID                    : S_TEXT/UTF8
  118. Codec ID/Info               : UTF-8 Plain Text
  119. Duration                    : 1 h 33 min
  120. Bit rate                    : 24 b/s
  121. Count of elements           : 675
  122. Stream size                 : 16.7 KiB (0%)
  123. Language                    : English
  124. Default                     : No
  125. Forced                      : No
  126.  
  127. Text #4
  128. ID                          : 7
  129. Format                      : UTF-8
  130. Codec ID                    : S_TEXT/UTF8
  131. Codec ID/Info               : UTF-8 Plain Text
  132. Duration                    : 1 h 36 min
  133. Bit rate                    : 23 b/s
  134. Count of elements           : 725
  135. Stream size                 : 16.6 KiB (0%)
  136. Language                    : Spanish
  137. Default                     : Yes
  138. Forced                      : Yes
  139.  
  140. Text #5
  141. ID                          : 8
  142. Format                      : UTF-8
  143. Codec ID                    : S_TEXT/UTF8
  144. Codec ID/Info               : UTF-8 Plain Text
  145. Duration                    : 1 h 36 min
  146. Bit rate                    : 2 b/s
  147. Count of elements           : 91
  148. Stream size                 : 1.83 KiB (0%)
  149. Language                    : Spanish
  150. Default                     : No
  151. Forced                      : No
  152.  
  153. Menu
  154. 00:00:00.000                : en:Chapter 1
  155. 00:04:31.896                : en:Chapter 2
  156. 00:10:51.901                : en:Chapter 3
  157. 00:14:41.422                : en:Chapter 4
  158. 00:17:05.774                : en:Chapter 5
  159. 00:20:39.655                : en:Chapter 6
  160. 00:25:09.549                : en:Chapter 7
  161. 00:32:49.634                : en:Chapter 8
  162. 00:38:06.117                : en:Chapter 9
  163. 00:43:02.705                : en:Chapter 10
  164. 00:51:15.739                : en:Chapter 11
  165. 00:55:13.184                : en:Chapter 12
  166. 01:00:04.350                : en:Chapter 13
  167. 01:04:51.804                : en:Chapter 14
  168. 01:09:58.235                : en:Chapter 15
  169. 01:14:39.516                : en:Chapter 16
  170. 01:20:58.520                : en:Chapter 17
  171. 01:24:46.372                : en:Chapter 18
  172. 01:30:30.675                : en:Chapter 19
  173. 01:34:56.315                : en:Chapter 20
RAW Paste Data
We use cookies for various purposes including analytics. By continuing to use Pastebin, you agree to our use of cookies as described in the Cookies Policy. OK, I Understand
 
Top