SHARE
TWEET

Untitled

a guest Jul 10th, 2015 197 Never
Not a member of Pastebin yet? Sign Up, it unlocks many cool features!
  1. K3bQProcess::QProcess(0x0)
  2. K3bQProcess::QProcess(0x0)
  3. k3b(5172)/kdeui (kdelibs): Attempt to use QAction "view_projects" with KXMLGUIFactory!
  4. k3b(5172)/kdeui (kdelibs): Attempt to use QAction "view_dir_tree" with KXMLGUIFactory!
  5. k3b(5172)/kdeui (kdelibs): Attempt to use QAction "view_contents" with KXMLGUIFactory!
  6. k3b(5172)/kdeui (kdelibs): Attempt to use QAction "location_bar" with KXMLGUIFactory!
  7. k3b(5172) KSambaSharePrivate::findSmbConf: KSambaShare: Could not find smb.conf!
  8. MEDIA CHANGED in "/org/freedesktop/UDisks2/block_devices/sr0" ; size is: 2048
  9. Input #0, mov,mp4,m4a,3gp,3g2,mj2, from '/home/roman/Desktop/music_youtube/Armin van Buuren - Ping Pong (Official Music Video)-5Nqj5LFaJVE.m4a':
  10.   Metadata:
  11.     major_brand     : isom
  12.     minor_version   : 512
  13.     compatible_brands: isomiso2mp41
  14.     encoder         : Lavf56.36.100
  15.   Duration: 00:04:14.19, start: 0.000000, bitrate: 254 kb/s
  16.     Stream #0:0(und): Audio: aac (LC) (mp4a / 0x6134706D), 44100 Hz, stereo, fltp, 253 kb/s (default)
  17.     Metadata:
  18.       handler_name    : SoundHandler
  19. Input #0, mov,mp4,m4a,3gp,3g2,mj2, from '/home/roman/Desktop/music_youtube/Armin van Buuren - Ping Pong (Official Music Video)-5Nqj5LFaJVE.m4a':
  20.   Metadata:
  21.     major_brand     : isom
  22.     minor_version   : 512
  23.     compatible_brands: isomiso2mp41
  24.     encoder         : Lavf56.36.100
  25.   Duration: 00:04:14.19, start: 0.000000, bitrate: 254 kb/s
  26.     Stream #0:0(und): Audio: aac (LC) (mp4a / 0x6134706D), 44100 Hz, stereo, fltp, 253 kb/s (default)
  27.     Metadata:
  28.       handler_name    : SoundHandler
  29. Input #0, mov,mp4,m4a,3gp,3g2,mj2, from '/home/roman/Desktop/music_youtube/Armin van Buuren - Ping Pong (Official Music Video)-5Nqj5LFaJVE.m4a':
  30.   Metadata:
  31.     major_brand     : isom
  32.     minor_version   : 512
  33.     compatible_brands: isomiso2mp41
  34.     encoder         : Lavf56.36.100
  35.   Duration: 00:04:14.19, start: 0.000000, bitrate: 254 kb/s
  36.     Stream #0:0(und): Audio: aac (LC) (mp4a / 0x6134706D), 44100 Hz, stereo, fltp, 253 kb/s (default)
  37.     Metadata:
  38.       handler_name    : SoundHandler
  39. Input #0, mov,mp4,m4a,3gp,3g2,mj2, from '/home/roman/Desktop/music_youtube/Armin van Buuren - Ping Pong (Official Music Video)-5Nqj5LFaJVE.m4a':
  40.   Metadata:
  41.     major_brand     : isom
  42.     minor_version   : 512
  43.     compatible_brands: isomiso2mp41
  44.     encoder         : Lavf56.36.100
  45.   Duration: 00:04:14.19, start: 0.000000, bitrate: 254 kb/s
  46.     Stream #0:0(und): Audio: aac (LC) (mp4a / 0x6134706D), 44100 Hz, stereo, fltp, 253 kb/s (default)
  47.     Metadata:
  48.       handler_name    : SoundHandler
  49. [mov,mp4,m4a,3gp,3g2,mj2 @ 0x2915660] stream 0, offset 0x2c: partial file
  50. Input #0, mov,mp4,m4a,3gp,3g2,mj2, from '/home/roman/Desktop/music_youtube/Armin van Buuren - Ping Pong (Official Music Video)-5Nqj5LFaJVE.m4a':
  51.   Metadata:
  52.     major_brand     : isom
  53.     minor_version   : 512
  54.     compatible_brands: isomiso2mp41
  55.     encoder         : Lavf56.36.100
  56.   Duration: 00:04:14.19, bitrate: 254 kb/s
  57.     Stream #0:0(und): Audio: aac (mp4a / 0x6134706D), 44100 Hz, stereo, fltp, 253 kb/s (default)
  58.     Metadata:
  59.       handler_name    : SoundHandler
  60. Input #0, mov,mp4,m4a,3gp,3g2,mj2, from '/home/roman/Desktop/music_youtube/Armin van Buuren - Ping Pong (Official Music Video)-5Nqj5LFaJVE.m4a':
  61.   Metadata:
  62.     major_brand     : isom
  63.     minor_version   : 512
  64.     compatible_brands: isomiso2mp41
  65.     encoder         : Lavf56.36.100
  66.   Duration: 00:04:14.19, start: 0.000000, bitrate: 254 kb/s
  67.     Stream #0:0(und): Audio: aac (LC) (mp4a / 0x6134706D), 44100 Hz, stereo, fltp, 253 kb/s (default)
  68.     Metadata:
  69.       handler_name    : SoundHandler
  70. Input #0, mov,mp4,m4a,3gp,3g2,mj2, from '/home/roman/Desktop/music_youtube/Armin van Buuren - Ping Pong (Official Music Video)-5Nqj5LFaJVE.m4a':
  71.   Metadata:
  72.     major_brand     : isom
  73.     minor_version   : 512
  74.     compatible_brands: isomiso2mp41
  75.     encoder         : Lavf56.36.100
  76.   Duration: 00:04:14.19, start: 0.000000, bitrate: 254 kb/s
  77.     Stream #0:0(und): Audio: aac (LC) (mp4a / 0x6134706D), 44100 Hz, stereo, fltp, 253 kb/s (default)
  78.     Metadata:
  79.       handler_name    : SoundHandler
  80. Input #0, mov,mp4,m4a,3gp,3g2,mj2, from '/home/roman/Desktop/music_youtube/Armin van Buuren - Ping Pong (Official Music Video)-5Nqj5LFaJVE.m4a':
  81.   Metadata:
  82.     major_brand     : isom
  83.     minor_version   : 512
  84.     compatible_brands: isomiso2mp41
  85.     encoder         : Lavf56.36.100
  86.   Duration: 00:04:14.19, start: 0.000000, bitrate: 254 kb/s
  87.     Stream #0:0(und): Audio: aac (LC) (mp4a / 0x6134706D), 44100 Hz, stereo, fltp, 253 kb/s (default)
  88.     Metadata:
  89.       handler_name    : SoundHandler
  90. [mov,mp4,m4a,3gp,3g2,mj2 @ 0x2908ff0] stream 0, offset 0x2c: partial file
  91. Input #0, mov,mp4,m4a,3gp,3g2,mj2, from '/home/roman/Desktop/music_youtube/Armin van Buuren - Ping Pong (Official Music Video)-5Nqj5LFaJVE.m4a':
  92.   Metadata:
  93.     major_brand     : isom
  94.     minor_version   : 512
  95.     compatible_brands: isomiso2mp41
  96.     encoder         : Lavf56.36.100
  97.   Duration: 00:04:14.19, bitrate: 254 kb/s
  98.     Stream #0:0(und): Audio: aac (mp4a / 0x6134706D), 44100 Hz, stereo, fltp, 253 kb/s (default)
  99.     Metadata:
  100.       handler_name    : SoundHandler
  101. Input #0, mov,mp4,m4a,3gp,3g2,mj2, from '/home/roman/Desktop/music_youtube/Armin van Buuren ft. Sharon den Adel - In and Out of Love (Official Music Video)-TxvpctgU_s8.m4a':
  102.   Metadata:
  103.     major_brand     : isom
  104.     minor_version   : 512
  105.     compatible_brands: isomiso2mp41
  106.     encoder         : Lavf56.36.100
  107.   Duration: 00:03:08.06, start: 0.000000, bitrate: 255 kb/s
  108.     Stream #0:0(und): Audio: aac (LC) (mp4a / 0x6134706D), 44100 Hz, stereo, fltp, 253 kb/s (default)
  109.     Metadata:
  110.       handler_name    : SoundHandler
  111. Input #0, mov,mp4,m4a,3gp,3g2,mj2, from '/home/roman/Desktop/music_youtube/Armin van Buuren ft. Sharon den Adel - In and Out of Love (Official Music Video)-TxvpctgU_s8.m4a':
  112.   Metadata:
  113.     major_brand     : isom
  114.     minor_version   : 512
  115.     compatible_brands: isomiso2mp41
  116.     encoder         : Lavf56.36.100
  117.   Duration: 00:03:08.06, start: 0.000000, bitrate: 255 kb/s
  118.     Stream #0:0(und): Audio: aac (LC) (mp4a / 0x6134706D), 44100 Hz, stereo, fltp, 253 kb/s (default)
  119.     Metadata:
  120.       handler_name    : SoundHandler
  121. Input #0, mov,mp4,m4a,3gp,3g2,mj2, from '/home/roman/Desktop/music_youtube/Armin van Buuren ft. Sharon den Adel - In and Out of Love (Official Music Video)-TxvpctgU_s8.m4a':
  122.   Metadata:
  123.     major_brand     : isom
  124.     minor_version   : 512
  125.     compatible_brands: isomiso2mp41
  126.     encoder         : Lavf56.36.100
  127.   Duration: 00:03:08.06, start: 0.000000, bitrate: 255 kb/s
  128.     Stream #0:0(und): Audio: aac (LC) (mp4a / 0x6134706D), 44100 Hz, stereo, fltp, 253 kb/s (default)
  129.     Metadata:
  130.       handler_name    : SoundHandler
  131. [mov,mp4,m4a,3gp,3g2,mj2 @ 0x27320d0] stream 0, offset 0x2c: partial file
  132. Input #0, mov,mp4,m4a,3gp,3g2,mj2, from '/home/roman/Desktop/music_youtube/Armin van Buuren ft. Sharon den Adel - In and Out of Love (Official Music Video)-TxvpctgU_s8.m4a':
  133.   Metadata:
  134.     major_brand     : isom
  135.     minor_version   : 512
  136.     compatible_brands: isomiso2mp41
  137.     encoder         : Lavf56.36.100
  138.   Duration: 00:03:08.06, bitrate: 255 kb/s
  139.     Stream #0:0(und): Audio: aac (mp4a / 0x6134706D), 44100 Hz, stereo, fltp, 253 kb/s (default)
  140.     Metadata:
  141.       handler_name    : SoundHandler
  142. Input #0, mov,mp4,m4a,3gp,3g2,mj2, from '/home/roman/Desktop/music_youtube/Armin van Buuren vs Sophie Ellis-Bextor - Not Giving Up On Love (Official Music Video)-Nh5R6VBn63E.m4a':
  143.   Metadata:
  144.     major_brand     : isom
  145.     minor_version   : 512
  146.     compatible_brands: isomiso2mp41
  147.     encoder         : Lavf56.36.100
  148.   Duration: 00:03:39.10, start: 0.000000, bitrate: 254 kb/s
  149.     Stream #0:0(und): Audio: aac (LC) (mp4a / 0x6134706D), 44100 Hz, stereo, fltp, 253 kb/s (default)
  150.     Metadata:
  151.       handler_name    : SoundHandler
  152. Input #0, mov,mp4,m4a,3gp,3g2,mj2, from '/home/roman/Desktop/music_youtube/Armin van Buuren vs Sophie Ellis-Bextor - Not Giving Up On Love (Official Music Video)-Nh5R6VBn63E.m4a':
  153.   Metadata:
  154.     major_brand     : isom
  155.     minor_version   : 512
  156.     compatible_brands: isomiso2mp41
  157.     encoder         : Lavf56.36.100
  158.   Duration: 00:03:39.10, start: 0.000000, bitrate: 254 kb/s
  159.     Stream #0:0(und): Audio: aac (LC) (mp4a / 0x6134706D), 44100 Hz, stereo, fltp, 253 kb/s (default)
  160.     Metadata:
  161.       handler_name    : SoundHandler
  162. Input #0, mov,mp4,m4a,3gp,3g2,mj2, from '/home/roman/Desktop/music_youtube/Armin van Buuren vs Sophie Ellis-Bextor - Not Giving Up On Love (Official Music Video)-Nh5R6VBn63E.m4a':
  163.   Metadata:
  164.     major_brand     : isom
  165.     minor_version   : 512
  166.     compatible_brands: isomiso2mp41
  167.     encoder         : Lavf56.36.100
  168.   Duration: 00:03:39.10, start: 0.000000, bitrate: 254 kb/s
  169.     Stream #0:0(und): Audio: aac (LC) (mp4a / 0x6134706D), 44100 Hz, stereo, fltp, 253 kb/s (default)
  170.     Metadata:
  171.       handler_name    : SoundHandler
  172. [mov,mp4,m4a,3gp,3g2,mj2 @ 0x29553c0] stream 0, offset 0x2c: partial file
  173. Input #0, mov,mp4,m4a,3gp,3g2,mj2, from '/home/roman/Desktop/music_youtube/Armin van Buuren vs Sophie Ellis-Bextor - Not Giving Up On Love (Official Music Video)-Nh5R6VBn63E.m4a':
  174.   Metadata:
  175.     major_brand     : isom
  176.     minor_version   : 512
  177.     compatible_brands: isomiso2mp41
  178.     encoder         : Lavf56.36.100
  179.   Duration: 00:03:39.10, bitrate: 254 kb/s
  180.     Stream #0:0(und): Audio: aac (mp4a / 0x6134706D), 44100 Hz, stereo, fltp, 253 kb/s (default)
  181.     Metadata:
  182.       handler_name    : SoundHandler
  183. Input #0, mov,mp4,m4a,3gp,3g2,mj2, from '/home/roman/Desktop/music_youtube/David Hasselhoff - True Survivor (from Kung Fury)-ZTidn2dBYbY.m4a':
  184.   Metadata:
  185.     major_brand     : isom
  186.     minor_version   : 512
  187.     compatible_brands: isomiso2mp41
  188.     encoder         : Lavf56.36.100
  189.   Duration: 00:04:03.79, start: 0.000000, bitrate: 254 kb/s
  190.     Stream #0:0(und): Audio: aac (LC) (mp4a / 0x6134706D), 44100 Hz, stereo, fltp, 253 kb/s (default)
  191.     Metadata:
  192.       handler_name    : SoundHandler
  193. Input #0, mov,mp4,m4a,3gp,3g2,mj2, from '/home/roman/Desktop/music_youtube/David Hasselhoff - True Survivor (from Kung Fury)-ZTidn2dBYbY.m4a':
  194.   Metadata:
  195.     major_brand     : isom
  196.     minor_version   : 512
  197.     compatible_brands: isomiso2mp41
  198.     encoder         : Lavf56.36.100
  199.   Duration: 00:04:03.79, start: 0.000000, bitrate: 254 kb/s
  200.     Stream #0:0(und): Audio: aac (LC) (mp4a / 0x6134706D), 44100 Hz, stereo, fltp, 253 kb/s (default)
  201.     Metadata:
  202.       handler_name    : SoundHandler
  203. Input #0, mov,mp4,m4a,3gp,3g2,mj2, from '/home/roman/Desktop/music_youtube/David Hasselhoff - True Survivor (from Kung Fury)-ZTidn2dBYbY.m4a':
  204.   Metadata:
  205.     major_brand     : isom
  206.     minor_version   : 512
  207.     compatible_brands: isomiso2mp41
  208.     encoder         : Lavf56.36.100
  209.   Duration: 00:04:03.79, start: 0.000000, bitrate: 254 kb/s
  210.     Stream #0:0(und): Audio: aac (LC) (mp4a / 0x6134706D), 44100 Hz, stereo, fltp, 253 kb/s (default)
  211.     Metadata:
  212.       handler_name    : SoundHandler
  213. [mov,mp4,m4a,3gp,3g2,mj2 @ 0x291a080] stream 0, offset 0x2c: partial file
  214. Input #0, mov,mp4,m4a,3gp,3g2,mj2, from '/home/roman/Desktop/music_youtube/David Hasselhoff - True Survivor (from Kung Fury)-ZTidn2dBYbY.m4a':
  215.   Metadata:
  216.     major_brand     : isom
  217.     minor_version   : 512
  218.     compatible_brands: isomiso2mp41
  219.     encoder         : Lavf56.36.100
  220.   Duration: 00:04:03.79, bitrate: 254 kb/s
  221.     Stream #0:0(und): Audio: aac (mp4a / 0x6134706D), 44100 Hz, stereo, fltp, 253 kb/s (default)
  222.     Metadata:
  223.       handler_name    : SoundHandler
  224. Input #0, mov,mp4,m4a,3gp,3g2,mj2, from '/home/roman/Desktop/music_youtube/Depeche Mode - Enjoy The Silence-aGSKrC7dGcY.m4a':
  225.   Metadata:
  226.     major_brand     : isom
  227.     minor_version   : 512
  228.     compatible_brands: isomiso2mp41
  229.     encoder         : Lavf56.36.100
  230.   Duration: 00:04:40.06, start: 0.000000, bitrate: 254 kb/s
  231.     Stream #0:0(und): Audio: aac (LC) (mp4a / 0x6134706D), 44100 Hz, stereo, fltp, 253 kb/s (default)
  232.     Metadata:
  233.       handler_name    : SoundHandler
  234. Input #0, mov,mp4,m4a,3gp,3g2,mj2, from '/home/roman/Desktop/music_youtube/Depeche Mode - Enjoy The Silence-aGSKrC7dGcY.m4a':
  235.   Metadata:
  236.     major_brand     : isom
  237.     minor_version   : 512
  238.     compatible_brands: isomiso2mp41
  239.     encoder         : Lavf56.36.100
  240.   Duration: 00:04:40.06, start: 0.000000, bitrate: 254 kb/s
  241.     Stream #0:0(und): Audio: aac (LC) (mp4a / 0x6134706D), 44100 Hz, stereo, fltp, 253 kb/s (default)
  242.     Metadata:
  243.       handler_name    : SoundHandler
  244. Input #0, mov,mp4,m4a,3gp,3g2,mj2, from '/home/roman/Desktop/music_youtube/Depeche Mode - Enjoy The Silence-aGSKrC7dGcY.m4a':
  245.   Metadata:
  246.     major_brand     : isom
  247.     minor_version   : 512
  248.     compatible_brands: isomiso2mp41
  249.     encoder         : Lavf56.36.100
  250.   Duration: 00:04:40.06, start: 0.000000, bitrate: 254 kb/s
  251.     Stream #0:0(und): Audio: aac (LC) (mp4a / 0x6134706D), 44100 Hz, stereo, fltp, 253 kb/s (default)
  252.     Metadata:
  253.       handler_name    : SoundHandler
  254. [mov,mp4,m4a,3gp,3g2,mj2 @ 0x29e2c90] stream 0, offset 0x2c: partial file
  255. Input #0, mov,mp4,m4a,3gp,3g2,mj2, from '/home/roman/Desktop/music_youtube/Depeche Mode - Enjoy The Silence-aGSKrC7dGcY.m4a':
  256.   Metadata:
  257.     major_brand     : isom
  258.     minor_version   : 512
  259.     compatible_brands: isomiso2mp41
  260.     encoder         : Lavf56.36.100
  261.   Duration: 00:04:40.06, bitrate: 254 kb/s
  262.     Stream #0:0(und): Audio: aac (mp4a / 0x6134706D), 44100 Hz, stereo, fltp, 253 kb/s (default)
  263.     Metadata:
  264.       handler_name    : SoundHandler
  265. Input #0, mov,mp4,m4a,3gp,3g2,mj2, from '/home/roman/Desktop/music_youtube/Dune - Keep The Secret (16_9 HD) _1998-9c30ozmjlcw.m4a':
  266.   Metadata:
  267.     major_brand     : isom
  268.     minor_version   : 512
  269.     compatible_brands: isomiso2mp41
  270.     encoder         : Lavf56.36.100
  271.   Duration: 00:03:33.23, start: 0.000000, bitrate: 254 kb/s
  272.     Stream #0:0(und): Audio: aac (LC) (mp4a / 0x6134706D), 44100 Hz, stereo, fltp, 253 kb/s (default)
  273.     Metadata:
  274.       handler_name    : SoundHandler
  275. Input #0, mov,mp4,m4a,3gp,3g2,mj2, from '/home/roman/Desktop/music_youtube/Dune - Keep The Secret (16_9 HD) _1998-9c30ozmjlcw.m4a':
  276.   Metadata:
  277.     major_brand     : isom
  278.     minor_version   : 512
  279.     compatible_brands: isomiso2mp41
  280.     encoder         : Lavf56.36.100
  281.   Duration: 00:03:33.23, start: 0.000000, bitrate: 254 kb/s
  282.     Stream #0:0(und): Audio: aac (LC) (mp4a / 0x6134706D), 44100 Hz, stereo, fltp, 253 kb/s (default)
  283.     Metadata:
  284.       handler_name    : SoundHandler
  285. Input #0, mov,mp4,m4a,3gp,3g2,mj2, from '/home/roman/Desktop/music_youtube/Dune - Keep The Secret (16_9 HD) _1998-9c30ozmjlcw.m4a':
  286.   Metadata:
  287.     major_brand     : isom
  288.     minor_version   : 512
  289.     compatible_brands: isomiso2mp41
  290.     encoder         : Lavf56.36.100
  291.   Duration: 00:03:33.23, start: 0.000000, bitrate: 254 kb/s
  292.     Stream #0:0(und): Audio: aac (LC) (mp4a / 0x6134706D), 44100 Hz, stereo, fltp, 253 kb/s (default)
  293.     Metadata:
  294.       handler_name    : SoundHandler
  295. [mov,mp4,m4a,3gp,3g2,mj2 @ 0x2921a10] stream 0, offset 0x2c: partial file
  296. Input #0, mov,mp4,m4a,3gp,3g2,mj2, from '/home/roman/Desktop/music_youtube/Dune - Keep The Secret (16_9 HD) _1998-9c30ozmjlcw.m4a':
  297.   Metadata:
  298.     major_brand     : isom
  299.     minor_version   : 512
  300.     compatible_brands: isomiso2mp41
  301.     encoder         : Lavf56.36.100
  302.   Duration: 00:03:33.23, bitrate: 254 kb/s
  303.     Stream #0:0(und): Audio: aac (mp4a / 0x6134706D), 44100 Hz, stereo, fltp, 253 kb/s (default)
  304.     Metadata:
  305.       handler_name    : SoundHandler
  306. Input #0, mov,mp4,m4a,3gp,3g2,mj2, from '/home/roman/Desktop/music_youtube/Eminem - Mockingbird-S9bCLPwzSC0.m4a':
  307.   Metadata:
  308.     major_brand     : isom
  309.     minor_version   : 512
  310.     compatible_brands: isomiso2mp41
  311.     encoder         : Lavf56.36.100
  312.   Duration: 00:04:18.39, start: 0.000000, bitrate: 254 kb/s
  313.     Stream #0:0(und): Audio: aac (LC) (mp4a / 0x6134706D), 44100 Hz, stereo, fltp, 253 kb/s (default)
  314.     Metadata:
  315.       handler_name    : SoundHandler
  316. Input #0, mov,mp4,m4a,3gp,3g2,mj2, from '/home/roman/Desktop/music_youtube/Eminem - Mockingbird-S9bCLPwzSC0.m4a':
  317.   Metadata:
  318.     major_brand     : isom
  319.     minor_version   : 512
  320.     compatible_brands: isomiso2mp41
  321.     encoder         : Lavf56.36.100
  322.   Duration: 00:04:18.39, start: 0.000000, bitrate: 254 kb/s
  323.     Stream #0:0(und): Audio: aac (LC) (mp4a / 0x6134706D), 44100 Hz, stereo, fltp, 253 kb/s (default)
  324.     Metadata:
  325.       handler_name    : SoundHandler
  326. Input #0, mov,mp4,m4a,3gp,3g2,mj2, from '/home/roman/Desktop/music_youtube/Eminem - Mockingbird-S9bCLPwzSC0.m4a':
  327.   Metadata:
  328.     major_brand     : isom
  329.     minor_version   : 512
  330.     compatible_brands: isomiso2mp41
  331.     encoder         : Lavf56.36.100
  332.   Duration: 00:04:18.39, start: 0.000000, bitrate: 254 kb/s
  333.     Stream #0:0(und): Audio: aac (LC) (mp4a / 0x6134706D), 44100 Hz, stereo, fltp, 253 kb/s (default)
  334.     Metadata:
  335.       handler_name    : SoundHandler
  336. [mov,mp4,m4a,3gp,3g2,mj2 @ 0x2a41100] stream 0, offset 0x2c: partial file
  337. Input #0, mov,mp4,m4a,3gp,3g2,mj2, from '/home/roman/Desktop/music_youtube/Eminem - Mockingbird-S9bCLPwzSC0.m4a':
  338.   Metadata:
  339.     major_brand     : isom
  340.     minor_version   : 512
  341.     compatible_brands: isomiso2mp41
  342.     encoder         : Lavf56.36.100
  343.   Duration: 00:04:18.39, bitrate: 254 kb/s
  344.     Stream #0:0(und): Audio: aac (mp4a / 0x6134706D), 44100 Hz, stereo, fltp, 253 kb/s (default)
  345.     Metadata:
  346.       handler_name    : SoundHandler
  347. Input #0, mov,mp4,m4a,3gp,3g2,mj2, from '/home/roman/Desktop/music_youtube/Fritz & Paul Kalkbrenner - Sky and Sand (Original Mix)-XINlEYXA3k0.m4a':
  348.   Metadata:
  349.     major_brand     : isom
  350.     minor_version   : 512
  351.     compatible_brands: isomiso2mp41
  352.     encoder         : Lavf56.36.100
  353.   Duration: 00:08:52.16, start: 0.000000, bitrate: 254 kb/s
  354.     Stream #0:0(und): Audio: aac (LC) (mp4a / 0x6134706D), 44100 Hz, stereo, fltp, 253 kb/s (default)
  355.     Metadata:
  356.       handler_name    : SoundHandler
  357. Input #0, mov,mp4,m4a,3gp,3g2,mj2, from '/home/roman/Desktop/music_youtube/Fritz & Paul Kalkbrenner - Sky and Sand (Original Mix)-XINlEYXA3k0.m4a':
  358.   Metadata:
  359.     major_brand     : isom
  360.     minor_version   : 512
  361.     compatible_brands: isomiso2mp41
  362.     encoder         : Lavf56.36.100
  363.   Duration: 00:08:52.16, start: 0.000000, bitrate: 254 kb/s
  364.     Stream #0:0(und): Audio: aac (LC) (mp4a / 0x6134706D), 44100 Hz, stereo, fltp, 253 kb/s (default)
  365.     Metadata:
  366.       handler_name    : SoundHandler
  367. Input #0, mov,mp4,m4a,3gp,3g2,mj2, from '/home/roman/Desktop/music_youtube/Fritz & Paul Kalkbrenner - Sky and Sand (Original Mix)-XINlEYXA3k0.m4a':
  368.   Metadata:
  369.     major_brand     : isom
  370.     minor_version   : 512
  371.     compatible_brands: isomiso2mp41
  372.     encoder         : Lavf56.36.100
  373.   Duration: 00:08:52.16, start: 0.000000, bitrate: 254 kb/s
  374.     Stream #0:0(und): Audio: aac (LC) (mp4a / 0x6134706D), 44100 Hz, stereo, fltp, 253 kb/s (default)
  375.     Metadata:
  376.       handler_name    : SoundHandler
  377. [mov,mp4,m4a,3gp,3g2,mj2 @ 0x2a449d0] stream 0, offset 0x2c: partial file
  378. Input #0, mov,mp4,m4a,3gp,3g2,mj2, from '/home/roman/Desktop/music_youtube/Fritz & Paul Kalkbrenner - Sky and Sand (Original Mix)-XINlEYXA3k0.m4a':
  379.   Metadata:
  380.     major_brand     : isom
  381.     minor_version   : 512
  382.     compatible_brands: isomiso2mp41
  383.     encoder         : Lavf56.36.100
  384.   Duration: 00:08:52.16, bitrate: 254 kb/s
  385.     Stream #0:0(und): Audio: aac (mp4a / 0x6134706D), 44100 Hz, stereo, fltp, 253 kb/s (default)
  386.     Metadata:
  387.       handler_name    : SoundHandler
  388. Input #0, mov,mp4,m4a,3gp,3g2,mj2, from '/home/roman/Desktop/music_youtube/Kai Tracid - Destiny's Path--zrARJI7uiM.m4a':
  389.   Metadata:
  390.     major_brand     : isom
  391.     minor_version   : 512
  392.     compatible_brands: isomiso2mp41
  393.     encoder         : Lavf56.36.100
  394.   Duration: 00:04:04.58, start: 0.000000, bitrate: 254 kb/s
  395.     Stream #0:0(und): Audio: aac (LC) (mp4a / 0x6134706D), 44100 Hz, stereo, fltp, 253 kb/s (default)
  396.     Metadata:
  397.       handler_name    : SoundHandler
  398. Input #0, mov,mp4,m4a,3gp,3g2,mj2, from '/home/roman/Desktop/music_youtube/Kai Tracid - Destiny's Path--zrARJI7uiM.m4a':
  399.   Metadata:
  400.     major_brand     : isom
  401.     minor_version   : 512
  402.     compatible_brands: isomiso2mp41
  403.     encoder         : Lavf56.36.100
  404.   Duration: 00:04:04.58, start: 0.000000, bitrate: 254 kb/s
  405.     Stream #0:0(und): Audio: aac (LC) (mp4a / 0x6134706D), 44100 Hz, stereo, fltp, 253 kb/s (default)
  406.     Metadata:
  407.       handler_name    : SoundHandler
  408. Input #0, mov,mp4,m4a,3gp,3g2,mj2, from '/home/roman/Desktop/music_youtube/Kai Tracid - Destiny's Path--zrARJI7uiM.m4a':
  409.   Metadata:
  410.     major_brand     : isom
  411.     minor_version   : 512
  412.     compatible_brands: isomiso2mp41
  413.     encoder         : Lavf56.36.100
  414.   Duration: 00:04:04.58, start: 0.000000, bitrate: 254 kb/s
  415.     Stream #0:0(und): Audio: aac (LC) (mp4a / 0x6134706D), 44100 Hz, stereo, fltp, 253 kb/s (default)
  416.     Metadata:
  417.       handler_name    : SoundHandler
  418. [mov,mp4,m4a,3gp,3g2,mj2 @ 0x2a47e80] stream 0, offset 0x2c: partial file
  419. Input #0, mov,mp4,m4a,3gp,3g2,mj2, from '/home/roman/Desktop/music_youtube/Kai Tracid - Destiny's Path--zrARJI7uiM.m4a':
  420.   Metadata:
  421.     major_brand     : isom
  422.     minor_version   : 512
  423.     compatible_brands: isomiso2mp41
  424.     encoder         : Lavf56.36.100
  425.   Duration: 00:04:04.58, bitrate: 254 kb/s
  426.     Stream #0:0(und): Audio: aac (mp4a / 0x6134706D), 44100 Hz, stereo, fltp, 253 kb/s (default)
  427.     Metadata:
  428.       handler_name    : SoundHandler
  429. Input #0, mov,mp4,m4a,3gp,3g2,mj2, from '/home/roman/Desktop/music_youtube/Kai Tracid - Liquid Skies-VA8b4YFXlhA.m4a':
  430.   Metadata:
  431.     major_brand     : isom
  432.     minor_version   : 512
  433.     compatible_brands: isomiso2mp41
  434.     encoder         : Lavf56.36.100
  435.   Duration: 00:03:46.63, start: 0.000000, bitrate: 254 kb/s
  436.     Stream #0:0(und): Audio: aac (LC) (mp4a / 0x6134706D), 44100 Hz, stereo, fltp, 253 kb/s (default)
  437.     Metadata:
  438.       handler_name    : SoundHandler
  439. Input #0, mov,mp4,m4a,3gp,3g2,mj2, from '/home/roman/Desktop/music_youtube/Kai Tracid - Liquid Skies-VA8b4YFXlhA.m4a':
  440.   Metadata:
  441.     major_brand     : isom
  442.     minor_version   : 512
  443.     compatible_brands: isomiso2mp41
  444.     encoder         : Lavf56.36.100
  445.   Duration: 00:03:46.63, start: 0.000000, bitrate: 254 kb/s
  446.     Stream #0:0(und): Audio: aac (LC) (mp4a / 0x6134706D), 44100 Hz, stereo, fltp, 253 kb/s (default)
  447.     Metadata:
  448.       handler_name    : SoundHandler
  449. Input #0, mov,mp4,m4a,3gp,3g2,mj2, from '/home/roman/Desktop/music_youtube/Kai Tracid - Liquid Skies-VA8b4YFXlhA.m4a':
  450.   Metadata:
  451.     major_brand     : isom
  452.     minor_version   : 512
  453.     compatible_brands: isomiso2mp41
  454.     encoder         : Lavf56.36.100
  455.   Duration: 00:03:46.63, start: 0.000000, bitrate: 254 kb/s
  456.     Stream #0:0(und): Audio: aac (LC) (mp4a / 0x6134706D), 44100 Hz, stereo, fltp, 253 kb/s (default)
  457.     Metadata:
  458.       handler_name    : SoundHandler
  459. [mov,mp4,m4a,3gp,3g2,mj2 @ 0x2a4cd50] stream 0, offset 0x2c: partial file
  460. Input #0, mov,mp4,m4a,3gp,3g2,mj2, from '/home/roman/Desktop/music_youtube/Kai Tracid - Liquid Skies-VA8b4YFXlhA.m4a':
  461.   Metadata:
  462.     major_brand     : isom
  463.     minor_version   : 512
  464.     compatible_brands: isomiso2mp41
  465.     encoder         : Lavf56.36.100
  466.   Duration: 00:03:46.63, bitrate: 254 kb/s
  467.     Stream #0:0(und): Audio: aac (mp4a / 0x6134706D), 44100 Hz, stereo, fltp, 253 kb/s (default)
  468.     Metadata:
  469.       handler_name    : SoundHandler
  470. Input #0, mov,mp4,m4a,3gp,3g2,mj2, from '/home/roman/Desktop/music_youtube/Kosmonova - Ayla-kanJcMB-D4w.m4a':
  471.   Metadata:
  472.     major_brand     : isom
  473.     minor_version   : 512
  474.     compatible_brands: isomiso2mp41
  475.     encoder         : Lavf56.36.100
  476.   Duration: 00:03:33.95, start: 0.000000, bitrate: 254 kb/s
  477.     Stream #0:0(und): Audio: aac (LC) (mp4a / 0x6134706D), 44100 Hz, stereo, fltp, 253 kb/s (default)
  478.     Metadata:
  479.       handler_name    : SoundHandler
  480. Input #0, mov,mp4,m4a,3gp,3g2,mj2, from '/home/roman/Desktop/music_youtube/Kosmonova - Ayla-kanJcMB-D4w.m4a':
  481.   Metadata:
  482.     major_brand     : isom
  483.     minor_version   : 512
  484.     compatible_brands: isomiso2mp41
  485.     encoder         : Lavf56.36.100
  486.   Duration: 00:03:33.95, start: 0.000000, bitrate: 254 kb/s
  487.     Stream #0:0(und): Audio: aac (LC) (mp4a / 0x6134706D), 44100 Hz, stereo, fltp, 253 kb/s (default)
  488.     Metadata:
  489.       handler_name    : SoundHandler
  490. Input #0, mov,mp4,m4a,3gp,3g2,mj2, from '/home/roman/Desktop/music_youtube/Kosmonova - Ayla-kanJcMB-D4w.m4a':
  491.   Metadata:
  492.     major_brand     : isom
  493.     minor_version   : 512
  494.     compatible_brands: isomiso2mp41
  495.     encoder         : Lavf56.36.100
  496.   Duration: 00:03:33.95, start: 0.000000, bitrate: 254 kb/s
  497.     Stream #0:0(und): Audio: aac (LC) (mp4a / 0x6134706D), 44100 Hz, stereo, fltp, 253 kb/s (default)
  498.     Metadata:
  499.       handler_name    : SoundHandler
  500. [mov,mp4,m4a,3gp,3g2,mj2 @ 0x2730090] stream 0, offset 0x2c: partial file
  501. Input #0, mov,mp4,m4a,3gp,3g2,mj2, from '/home/roman/Desktop/music_youtube/Kosmonova - Ayla-kanJcMB-D4w.m4a':
  502.   Metadata:
  503.     major_brand     : isom
  504.     minor_version   : 512
  505.     compatible_brands: isomiso2mp41
  506.     encoder         : Lavf56.36.100
  507.   Duration: 00:03:33.95, bitrate: 254 kb/s
  508.     Stream #0:0(und): Audio: aac (mp4a / 0x6134706D), 44100 Hz, stereo, fltp, 253 kb/s (default)
  509.     Metadata:
  510.       handler_name    : SoundHandler
  511. Input #0, mov,mp4,m4a,3gp,3g2,mj2, from '/home/roman/Desktop/music_youtube/Kosmonova - Take Me Away-TYN8lL6rdNU.m4a':
  512.   Metadata:
  513.     major_brand     : isom
  514.     minor_version   : 512
  515.     compatible_brands: isomiso2mp41
  516.     encoder         : Lavf56.36.100
  517.   Duration: 00:03:37.04, start: 0.000000, bitrate: 254 kb/s
  518.     Stream #0:0(und): Audio: aac (LC) (mp4a / 0x6134706D), 44100 Hz, stereo, fltp, 253 kb/s (default)
  519.     Metadata:
  520.       handler_name    : SoundHandler
  521. Input #0, mov,mp4,m4a,3gp,3g2,mj2, from '/home/roman/Desktop/music_youtube/Kosmonova - Take Me Away-TYN8lL6rdNU.m4a':
  522.   Metadata:
  523.     major_brand     : isom
  524.     minor_version   : 512
  525.     compatible_brands: isomiso2mp41
  526.     encoder         : Lavf56.36.100
  527.   Duration: 00:03:37.04, start: 0.000000, bitrate: 254 kb/s
  528.     Stream #0:0(und): Audio: aac (LC) (mp4a / 0x6134706D), 44100 Hz, stereo, fltp, 253 kb/s (default)
  529.     Metadata:
  530.       handler_name    : SoundHandler
  531. Input #0, mov,mp4,m4a,3gp,3g2,mj2, from '/home/roman/Desktop/music_youtube/Kosmonova - Take Me Away-TYN8lL6rdNU.m4a':
  532.   Metadata:
  533.     major_brand     : isom
  534.     minor_version   : 512
  535.     compatible_brands: isomiso2mp41
  536.     encoder         : Lavf56.36.100
  537.   Duration: 00:03:37.04, start: 0.000000, bitrate: 254 kb/s
  538.     Stream #0:0(und): Audio: aac (LC) (mp4a / 0x6134706D), 44100 Hz, stereo, fltp, 253 kb/s (default)
  539.     Metadata:
  540.       handler_name    : SoundHandler
  541. [mov,mp4,m4a,3gp,3g2,mj2 @ 0x2a4a010] stream 0, offset 0x2c: partial file
  542. Input #0, mov,mp4,m4a,3gp,3g2,mj2, from '/home/roman/Desktop/music_youtube/Kosmonova - Take Me Away-TYN8lL6rdNU.m4a':
  543.   Metadata:
  544.     major_brand     : isom
  545.     minor_version   : 512
  546.     compatible_brands: isomiso2mp41
  547.     encoder         : Lavf56.36.100
  548.   Duration: 00:03:37.04, bitrate: 254 kb/s
  549.     Stream #0:0(und): Audio: aac (mp4a / 0x6134706D), 44100 Hz, stereo, fltp, 253 kb/s (default)
  550.     Metadata:
  551.       handler_name    : SoundHandler
  552. Input #0, mov,mp4,m4a,3gp,3g2,mj2, from '/home/roman/Desktop/music_youtube/Mia - Tanz Der Moleküle [Dance Of The Molecules]-fsbaauauB4s.m4a':
  553.   Metadata:
  554.     major_brand     : isom
  555.     minor_version   : 512
  556.     compatible_brands: isomiso2mp41
  557.     encoder         : Lavf56.36.100
  558.   Duration: 00:04:05.32, start: 0.000000, bitrate: 191 kb/s
  559.     Stream #0:0(und): Audio: aac (LC) (mp4a / 0x6134706D), 44100 Hz, mono, fltp, 189 kb/s (default)
  560.     Metadata:
  561.       handler_name    : SoundHandler
  562. Input #0, mov,mp4,m4a,3gp,3g2,mj2, from '/home/roman/Desktop/music_youtube/Mia - Tanz Der Moleküle [Dance Of The Molecules]-fsbaauauB4s.m4a':
  563.   Metadata:
  564.     major_brand     : isom
  565.     minor_version   : 512
  566.     compatible_brands: isomiso2mp41
  567.     encoder         : Lavf56.36.100
  568.   Duration: 00:04:05.32, start: 0.000000, bitrate: 191 kb/s
  569.     Stream #0:0(und): Audio: aac (LC) (mp4a / 0x6134706D), 44100 Hz, mono, fltp, 189 kb/s (default)
  570.     Metadata:
  571.       handler_name    : SoundHandler
  572. Input #0, mov,mp4,m4a,3gp,3g2,mj2, from '/home/roman/Desktop/music_youtube/Mia - Tanz Der Moleküle [Dance Of The Molecules]-fsbaauauB4s.m4a':
  573.   Metadata:
  574.     major_brand     : isom
  575.     minor_version   : 512
  576.     compatible_brands: isomiso2mp41
  577.     encoder         : Lavf56.36.100
  578.   Duration: 00:04:05.32, start: 0.000000, bitrate: 191 kb/s
  579.     Stream #0:0(und): Audio: aac (LC) (mp4a / 0x6134706D), 44100 Hz, mono, fltp, 189 kb/s (default)
  580.     Metadata:
  581.       handler_name    : SoundHandler
  582. [mov,mp4,m4a,3gp,3g2,mj2 @ 0x2919150] stream 0, offset 0x2c: partial file
  583. Input #0, mov,mp4,m4a,3gp,3g2,mj2, from '/home/roman/Desktop/music_youtube/Mia - Tanz Der Moleküle [Dance Of The Molecules]-fsbaauauB4s.m4a':
  584.   Metadata:
  585.     major_brand     : isom
  586.     minor_version   : 512
  587.     compatible_brands: isomiso2mp41
  588.     encoder         : Lavf56.36.100
  589.   Duration: 00:04:05.32, bitrate: 191 kb/s
  590.     Stream #0:0(und): Audio: aac (mp4a / 0x6134706D), 44100 Hz, mono, fltp, 189 kb/s (default)
  591.     Metadata:
  592.       handler_name    : SoundHandler
  593. Input #0, mov,mp4,m4a,3gp,3g2,mj2, from '/home/roman/Desktop/music_youtube/Mia. - Uhlala (Damit du fühlst)-cufsXFpZ9EA.m4a':
  594.   Metadata:
  595.     major_brand     : isom
  596.     minor_version   : 512
  597.     compatible_brands: isomiso2mp41
  598.     encoder         : Lavf56.36.100
  599.   Duration: 00:03:34.90, start: 0.000000, bitrate: 254 kb/s
  600.     Stream #0:0(und): Audio: aac (LC) (mp4a / 0x6134706D), 44100 Hz, stereo, fltp, 253 kb/s (default)
  601.     Metadata:
  602.       handler_name    : SoundHandler
  603. Input #0, mov,mp4,m4a,3gp,3g2,mj2, from '/home/roman/Desktop/music_youtube/Mia. - Uhlala (Damit du fühlst)-cufsXFpZ9EA.m4a':
  604.   Metadata:
  605.     major_brand     : isom
  606.     minor_version   : 512
  607.     compatible_brands: isomiso2mp41
  608.     encoder         : Lavf56.36.100
  609.   Duration: 00:03:34.90, start: 0.000000, bitrate: 254 kb/s
  610.     Stream #0:0(und): Audio: aac (LC) (mp4a / 0x6134706D), 44100 Hz, stereo, fltp, 253 kb/s (default)
  611.     Metadata:
  612.       handler_name    : SoundHandler
  613. Input #0, mov,mp4,m4a,3gp,3g2,mj2, from '/home/roman/Desktop/music_youtube/Mia. - Uhlala (Damit du fühlst)-cufsXFpZ9EA.m4a':
  614.   Metadata:
  615.     major_brand     : isom
  616.     minor_version   : 512
  617.     compatible_brands: isomiso2mp41
  618.     encoder         : Lavf56.36.100
  619.   Duration: 00:03:34.90, start: 0.000000, bitrate: 254 kb/s
  620.     Stream #0:0(und): Audio: aac (LC) (mp4a / 0x6134706D), 44100 Hz, stereo, fltp, 253 kb/s (default)
  621.     Metadata:
  622.       handler_name    : SoundHandler
  623. [mov,mp4,m4a,3gp,3g2,mj2 @ 0x2987020] stream 0, offset 0x2c: partial file
  624. Input #0, mov,mp4,m4a,3gp,3g2,mj2, from '/home/roman/Desktop/music_youtube/Mia. - Uhlala (Damit du fühlst)-cufsXFpZ9EA.m4a':
  625.   Metadata:
  626.     major_brand     : isom
  627.     minor_version   : 512
  628.     compatible_brands: isomiso2mp41
  629.     encoder         : Lavf56.36.100
  630.   Duration: 00:03:34.90, bitrate: 254 kb/s
  631.     Stream #0:0(und): Audio: aac (mp4a / 0x6134706D), 44100 Hz, stereo, fltp, 253 kb/s (default)
  632.     Metadata:
  633.       handler_name    : SoundHandler
  634. Input #0, mov,mp4,m4a,3gp,3g2,mj2, from '/home/roman/Desktop/music_youtube/PSY - GANGNAM STYLE (강남스타일) M_V-9bZkp7q19f0.m4a':
  635.   Metadata:
  636.     major_brand     : isom
  637.     minor_version   : 512
  638.     compatible_brands: isomiso2mp41
  639.     encoder         : Lavf56.36.100
  640.   Duration: 00:04:12.26, start: 0.000000, bitrate: 254 kb/s
  641.     Stream #0:0(und): Audio: aac (LC) (mp4a / 0x6134706D), 44100 Hz, stereo, fltp, 253 kb/s (default)
  642.     Metadata:
  643.       handler_name    : SoundHandler
  644. Input #0, mov,mp4,m4a,3gp,3g2,mj2, from '/home/roman/Desktop/music_youtube/PSY - GANGNAM STYLE (강남스타일) M_V-9bZkp7q19f0.m4a':
  645.   Metadata:
  646.     major_brand     : isom
  647.     minor_version   : 512
  648.     compatible_brands: isomiso2mp41
  649.     encoder         : Lavf56.36.100
  650.   Duration: 00:04:12.26, start: 0.000000, bitrate: 254 kb/s
  651.     Stream #0:0(und): Audio: aac (LC) (mp4a / 0x6134706D), 44100 Hz, stereo, fltp, 253 kb/s (default)
  652.     Metadata:
  653.       handler_name    : SoundHandler
  654. Input #0, mov,mp4,m4a,3gp,3g2,mj2, from '/home/roman/Desktop/music_youtube/PSY - GANGNAM STYLE (강남스타일) M_V-9bZkp7q19f0.m4a':
  655.   Metadata:
  656.     major_brand     : isom
  657.     minor_version   : 512
  658.     compatible_brands: isomiso2mp41
  659.     encoder         : Lavf56.36.100
  660.   Duration: 00:04:12.26, start: 0.000000, bitrate: 254 kb/s
  661.     Stream #0:0(und): Audio: aac (LC) (mp4a / 0x6134706D), 44100 Hz, stereo, fltp, 253 kb/s (default)
  662.     Metadata:
  663.       handler_name    : SoundHandler
  664. [mov,mp4,m4a,3gp,3g2,mj2 @ 0x2a44270] stream 0, offset 0x2c: partial file
  665. Input #0, mov,mp4,m4a,3gp,3g2,mj2, from '/home/roman/Desktop/music_youtube/PSY - GANGNAM STYLE (강남스타일) M_V-9bZkp7q19f0.m4a':
  666.   Metadata:
  667.     major_brand     : isom
  668.     minor_version   : 512
  669.     compatible_brands: isomiso2mp41
  670.     encoder         : Lavf56.36.100
  671.   Duration: 00:04:12.26, bitrate: 254 kb/s
  672.     Stream #0:0(und): Audio: aac (mp4a / 0x6134706D), 44100 Hz, stereo, fltp, 253 kb/s (default)
  673.     Metadata:
  674.       handler_name    : SoundHandler
  675. Input #0, mov,mp4,m4a,3gp,3g2,mj2, from '/home/roman/Desktop/music_youtube/SANDRA - We'll be together-iygeiYo6smQ.m4a':
  676.   Metadata:
  677.     major_brand     : isom
  678.     minor_version   : 512
  679.     compatible_brands: isomiso2mp41
  680.     encoder         : Lavf56.36.100
  681.   Duration: 00:03:43.82, start: 0.000000, bitrate: 254 kb/s
  682.     Stream #0:0(und): Audio: aac (LC) (mp4a / 0x6134706D), 44100 Hz, stereo, fltp, 253 kb/s (default)
  683.     Metadata:
  684.       handler_name    : SoundHandler
  685. Input #0, mov,mp4,m4a,3gp,3g2,mj2, from '/home/roman/Desktop/music_youtube/SANDRA - We'll be together-iygeiYo6smQ.m4a':
  686.   Metadata:
  687.     major_brand     : isom
  688.     minor_version   : 512
  689.     compatible_brands: isomiso2mp41
  690.     encoder         : Lavf56.36.100
  691.   Duration: 00:03:43.82, start: 0.000000, bitrate: 254 kb/s
  692.     Stream #0:0(und): Audio: aac (LC) (mp4a / 0x6134706D), 44100 Hz, stereo, fltp, 253 kb/s (default)
  693.     Metadata:
  694.       handler_name    : SoundHandler
  695. Input #0, mov,mp4,m4a,3gp,3g2,mj2, from '/home/roman/Desktop/music_youtube/SANDRA - We'll be together-iygeiYo6smQ.m4a':
  696.   Metadata:
  697.     major_brand     : isom
  698.     minor_version   : 512
  699.     compatible_brands: isomiso2mp41
  700.     encoder         : Lavf56.36.100
  701.   Duration: 00:03:43.82, start: 0.000000, bitrate: 254 kb/s
  702.     Stream #0:0(und): Audio: aac (LC) (mp4a / 0x6134706D), 44100 Hz, stereo, fltp, 253 kb/s (default)
  703.     Metadata:
  704.       handler_name    : SoundHandler
  705. [mov,mp4,m4a,3gp,3g2,mj2 @ 0x2913240] stream 0, offset 0x2c: partial file
  706. Input #0, mov,mp4,m4a,3gp,3g2,mj2, from '/home/roman/Desktop/music_youtube/SANDRA - We'll be together-iygeiYo6smQ.m4a':
  707.   Metadata:
  708.     major_brand     : isom
  709.     minor_version   : 512
  710.     compatible_brands: isomiso2mp41
  711.     encoder         : Lavf56.36.100
  712.   Duration: 00:03:43.82, bitrate: 254 kb/s
  713.     Stream #0:0(und): Audio: aac (mp4a / 0x6134706D), 44100 Hz, stereo, fltp, 253 kb/s (default)
  714.     Metadata:
  715.       handler_name    : SoundHandler
  716. Input #0, mov,mp4,m4a,3gp,3g2,mj2, from '/home/roman/Desktop/music_youtube/William Orbit - Barber's Adagio For Strings-yNcdVuPVXR0.m4a':
  717.   Metadata:
  718.     major_brand     : isom
  719.     minor_version   : 512
  720.     compatible_brands: isomiso2mp41
  721.     encoder         : Lavf56.36.100
  722.   Duration: 00:03:37.41, start: 0.000000, bitrate: 254 kb/s
  723.     Stream #0:0(und): Audio: aac (LC) (mp4a / 0x6134706D), 44100 Hz, stereo, fltp, 253 kb/s (default)
  724.     Metadata:
  725.       handler_name    : SoundHandler
  726. Input #0, mov,mp4,m4a,3gp,3g2,mj2, from '/home/roman/Desktop/music_youtube/William Orbit - Barber's Adagio For Strings-yNcdVuPVXR0.m4a':
  727.   Metadata:
  728.     major_brand     : isom
  729.     minor_version   : 512
  730.     compatible_brands: isomiso2mp41
  731.     encoder         : Lavf56.36.100
  732.   Duration: 00:03:37.41, start: 0.000000, bitrate: 254 kb/s
  733.     Stream #0:0(und): Audio: aac (LC) (mp4a / 0x6134706D), 44100 Hz, stereo, fltp, 253 kb/s (default)
  734.     Metadata:
  735.       handler_name    : SoundHandler
  736. Input #0, mov,mp4,m4a,3gp,3g2,mj2, from '/home/roman/Desktop/music_youtube/William Orbit - Barber's Adagio For Strings-yNcdVuPVXR0.m4a':
  737.   Metadata:
  738.     major_brand     : isom
  739.     minor_version   : 512
  740.     compatible_brands: isomiso2mp41
  741.     encoder         : Lavf56.36.100
  742.   Duration: 00:03:37.41, start: 0.000000, bitrate: 254 kb/s
  743.     Stream #0:0(und): Audio: aac (LC) (mp4a / 0x6134706D), 44100 Hz, stereo, fltp, 253 kb/s (default)
  744.     Metadata:
  745.       handler_name    : SoundHandler
  746. [mov,mp4,m4a,3gp,3g2,mj2 @ 0x2a3e8f0] stream 0, offset 0x2c: partial file
  747. Input #0, mov,mp4,m4a,3gp,3g2,mj2, from '/home/roman/Desktop/music_youtube/William Orbit - Barber's Adagio For Strings-yNcdVuPVXR0.m4a':
  748.   Metadata:
  749.     major_brand     : isom
  750.     minor_version   : 512
  751.     compatible_brands: isomiso2mp41
  752.     encoder         : Lavf56.36.100
  753.   Duration: 00:03:37.41, bitrate: 254 kb/s
  754.     Stream #0:0(und): Audio: aac (mp4a / 0x6134706D), 44100 Hz, stereo, fltp, 253 kb/s (default)
  755.     Metadata:
  756.       handler_name    : SoundHandler
  757. QLayout: Attempting to add QLayout "" to QFrame "", which already has a layout
  758. K3bQProcess::QProcess(0x0)
  759. Input #0, mov,mp4,m4a,3gp,3g2,mj2, from '/home/roman/Desktop/music_youtube/Armin van Buuren - Ping Pong (Official Music Video)-5Nqj5LFaJVE.m4a':
  760.   Metadata:
  761.     major_brand     : isom
  762.     minor_version   : 512
  763.     compatible_brands: isomiso2mp41
  764.     encoder         : Lavf56.36.100
  765.   Duration: 00:04:14.19, start: 0.000000, bitrate: 254 kb/s
  766.     Stream #0:0(und): Audio: aac (LC) (mp4a / 0x6134706D), 44100 Hz, stereo, fltp, 253 kb/s (default)
  767.     Metadata:
  768.       handler_name    : SoundHandler
  769. Input #0, mov,mp4,m4a,3gp,3g2,mj2, from '/home/roman/Desktop/music_youtube/Armin van Buuren ft. Sharon den Adel - In and Out of Love (Official Music Video)-TxvpctgU_s8.m4a':
  770.   Metadata:
  771.     major_brand     : isom
  772.     minor_version   : 512
  773.     compatible_brands: isomiso2mp41
  774.     encoder         : Lavf56.36.100
  775.   Duration: 00:03:08.06, start: 0.000000, bitrate: 255 kb/s
  776.     Stream #0:0(und): Audio: aac (LC) (mp4a / 0x6134706D), 44100 Hz, stereo, fltp, 253 kb/s (default)
  777.     Metadata:
  778.       handler_name    : SoundHandler
  779. Input #0, mov,mp4,m4a,3gp,3g2,mj2, from '/home/roman/Desktop/music_youtube/Armin van Buuren vs Sophie Ellis-Bextor - Not Giving Up On Love (Official Music Video)-Nh5R6VBn63E.m4a':
  780.   Metadata:
  781.     major_brand     : isom
  782.     minor_version   : 512
  783.     compatible_brands: isomiso2mp41
  784.     encoder         : Lavf56.36.100
  785.   Duration: 00:03:39.10, start: 0.000000, bitrate: 254 kb/s
  786.     Stream #0:0(und): Audio: aac (LC) (mp4a / 0x6134706D), 44100 Hz, stereo, fltp, 253 kb/s (default)
  787.     Metadata:
  788.       handler_name    : SoundHandler
  789. Input #0, mov,mp4,m4a,3gp,3g2,mj2, from '/home/roman/Desktop/music_youtube/David Hasselhoff - True Survivor (from Kung Fury)-ZTidn2dBYbY.m4a':
  790.   Metadata:
  791.     major_brand     : isom
  792.     minor_version   : 512
  793.     compatible_brands: isomiso2mp41
  794.     encoder         : Lavf56.36.100
  795.   Duration: 00:04:03.79, start: 0.000000, bitrate: 254 kb/s
  796.     Stream #0:0(und): Audio: aac (LC) (mp4a / 0x6134706D), 44100 Hz, stereo, fltp, 253 kb/s (default)
  797.     Metadata:
  798.       handler_name    : SoundHandler
  799. Input #0, mov,mp4,m4a,3gp,3g2,mj2, from '/home/roman/Desktop/music_youtube/Depeche Mode - Enjoy The Silence-aGSKrC7dGcY.m4a':
  800.   Metadata:
  801.     major_brand     : isom
  802.     minor_version   : 512
  803.     compatible_brands: isomiso2mp41
  804.     encoder         : Lavf56.36.100
  805.   Duration: 00:04:40.06, start: 0.000000, bitrate: 254 kb/s
  806.     Stream #0:0(und): Audio: aac (LC) (mp4a / 0x6134706D), 44100 Hz, stereo, fltp, 253 kb/s (default)
  807.     Metadata:
  808.       handler_name    : SoundHandler
  809. Input #0, mov,mp4,m4a,3gp,3g2,mj2, from '/home/roman/Desktop/music_youtube/Dune - Keep The Secret (16_9 HD) _1998-9c30ozmjlcw.m4a':
  810.   Metadata:
  811.     major_brand     : isom
  812.     minor_version   : 512
  813.     compatible_brands: isomiso2mp41
  814.     encoder         : Lavf56.36.100
  815.   Duration: 00:03:33.23, start: 0.000000, bitrate: 254 kb/s
  816.     Stream #0:0(und): Audio: aac (LC) (mp4a / 0x6134706D), 44100 Hz, stereo, fltp, 253 kb/s (default)
  817.     Metadata:
  818.       handler_name    : SoundHandler
  819. Input #0, mov,mp4,m4a,3gp,3g2,mj2, from '/home/roman/Desktop/music_youtube/Eminem - Mockingbird-S9bCLPwzSC0.m4a':
  820.   Metadata:
  821.     major_brand     : isom
  822.     minor_version   : 512
  823.     compatible_brands: isomiso2mp41
  824.     encoder         : Lavf56.36.100
  825.   Duration: 00:04:18.39, start: 0.000000, bitrate: 254 kb/s
  826.     Stream #0:0(und): Audio: aac (LC) (mp4a / 0x6134706D), 44100 Hz, stereo, fltp, 253 kb/s (default)
  827.     Metadata:
  828.       handler_name    : SoundHandler
  829. Input #0, mov,mp4,m4a,3gp,3g2,mj2, from '/home/roman/Desktop/music_youtube/Fritz & Paul Kalkbrenner - Sky and Sand (Original Mix)-XINlEYXA3k0.m4a':
  830.   Metadata:
  831.     major_brand     : isom
  832.     minor_version   : 512
  833.     compatible_brands: isomiso2mp41
  834.     encoder         : Lavf56.36.100
  835.   Duration: 00:08:52.16, start: 0.000000, bitrate: 254 kb/s
  836.     Stream #0:0(und): Audio: aac (LC) (mp4a / 0x6134706D), 44100 Hz, stereo, fltp, 253 kb/s (default)
  837.     Metadata:
  838.       handler_name    : SoundHandler
  839. Input #0, mov,mp4,m4a,3gp,3g2,mj2, from '/home/roman/Desktop/music_youtube/Kai Tracid - Destiny's Path--zrARJI7uiM.m4a':
  840.   Metadata:
  841.     major_brand     : isom
  842.     minor_version   : 512
  843.     compatible_brands: isomiso2mp41
  844.     encoder         : Lavf56.36.100
  845.   Duration: 00:04:04.58, start: 0.000000, bitrate: 254 kb/s
  846.     Stream #0:0(und): Audio: aac (LC) (mp4a / 0x6134706D), 44100 Hz, stereo, fltp, 253 kb/s (default)
  847.     Metadata:
  848.       handler_name    : SoundHandler
  849. Input #0, mov,mp4,m4a,3gp,3g2,mj2, from '/home/roman/Desktop/music_youtube/Kai Tracid - Liquid Skies-VA8b4YFXlhA.m4a':
  850.   Metadata:
  851.     major_brand     : isom
  852.     minor_version   : 512
  853.     compatible_brands: isomiso2mp41
  854.     encoder         : Lavf56.36.100
  855.   Duration: 00:03:46.63, start: 0.000000, bitrate: 254 kb/s
  856.     Stream #0:0(und): Audio: aac (LC) (mp4a / 0x6134706D), 44100 Hz, stereo, fltp, 253 kb/s (default)
  857.     Metadata:
  858.       handler_name    : SoundHandler
  859. Input #0, mov,mp4,m4a,3gp,3g2,mj2, from '/home/roman/Desktop/music_youtube/Kosmonova - Ayla-kanJcMB-D4w.m4a':
  860.   Metadata:
  861.     major_brand     : isom
  862.     minor_version   : 512
  863.     compatible_brands: isomiso2mp41
  864.     encoder         : Lavf56.36.100
  865.   Duration: 00:03:33.95, start: 0.000000, bitrate: 254 kb/s
  866.     Stream #0:0(und): Audio: aac (LC) (mp4a / 0x6134706D), 44100 Hz, stereo, fltp, 253 kb/s (default)
  867.     Metadata:
  868.       handler_name    : SoundHandler
  869. Input #0, mov,mp4,m4a,3gp,3g2,mj2, from '/home/roman/Desktop/music_youtube/Kosmonova - Take Me Away-TYN8lL6rdNU.m4a':
  870.   Metadata:
  871.     major_brand     : isom
  872.     minor_version   : 512
  873.     compatible_brands: isomiso2mp41
  874.     encoder         : Lavf56.36.100
  875.   Duration: 00:03:37.04, start: 0.000000, bitrate: 254 kb/s
  876.     Stream #0:0(und): Audio: aac (LC) (mp4a / 0x6134706D), 44100 Hz, stereo, fltp, 253 kb/s (default)
  877.     Metadata:
  878.       handler_name    : SoundHandler
  879. Input #0, mov,mp4,m4a,3gp,3g2,mj2, from '/home/roman/Desktop/music_youtube/Mia - Tanz Der Moleküle [Dance Of The Molecules]-fsbaauauB4s.m4a':
  880.   Metadata:
  881.     major_brand     : isom
  882.     minor_version   : 512
  883.     compatible_brands: isomiso2mp41
  884.     encoder         : Lavf56.36.100
  885.   Duration: 00:04:05.32, start: 0.000000, bitrate: 191 kb/s
  886.     Stream #0:0(und): Audio: aac (LC) (mp4a / 0x6134706D), 44100 Hz, mono, fltp, 189 kb/s (default)
  887.     Metadata:
  888.       handler_name    : SoundHandler
  889. Input #0, mov,mp4,m4a,3gp,3g2,mj2, from '/home/roman/Desktop/music_youtube/Mia. - Uhlala (Damit du fühlst)-cufsXFpZ9EA.m4a':
  890.   Metadata:
  891.     major_brand     : isom
  892.     minor_version   : 512
  893.     compatible_brands: isomiso2mp41
  894.     encoder         : Lavf56.36.100
  895.   Duration: 00:03:34.90, start: 0.000000, bitrate: 254 kb/s
  896.     Stream #0:0(und): Audio: aac (LC) (mp4a / 0x6134706D), 44100 Hz, stereo, fltp, 253 kb/s (default)
  897.     Metadata:
  898.       handler_name    : SoundHandler
  899. Input #0, mov,mp4,m4a,3gp,3g2,mj2, from '/home/roman/Desktop/music_youtube/PSY - GANGNAM STYLE (강남스타일) M_V-9bZkp7q19f0.m4a':
  900.   Metadata:
  901.     major_brand     : isom
  902.     minor_version   : 512
  903.     compatible_brands: isomiso2mp41
  904.     encoder         : Lavf56.36.100
  905.   Duration: 00:04:12.26, start: 0.000000, bitrate: 254 kb/s
  906.     Stream #0:0(und): Audio: aac (LC) (mp4a / 0x6134706D), 44100 Hz, stereo, fltp, 253 kb/s (default)
  907.     Metadata:
  908.       handler_name    : SoundHandler
  909. Input #0, mov,mp4,m4a,3gp,3g2,mj2, from '/home/roman/Desktop/music_youtube/SANDRA - We'll be together-iygeiYo6smQ.m4a':
  910.   Metadata:
  911.     major_brand     : isom
  912.     minor_version   : 512
  913.     compatible_brands: isomiso2mp41
  914.     encoder         : Lavf56.36.100
  915.   Duration: 00:03:43.82, start: 0.000000, bitrate: 254 kb/s
  916.     Stream #0:0(und): Audio: aac (LC) (mp4a / 0x6134706D), 44100 Hz, stereo, fltp, 253 kb/s (default)
  917.     Metadata:
  918.       handler_name    : SoundHandler
  919. Input #0, mov,mp4,m4a,3gp,3g2,mj2, from '/home/roman/Desktop/music_youtube/William Orbit - Barber's Adagio For Strings-yNcdVuPVXR0.m4a':
  920.   Metadata:
  921.     major_brand     : isom
  922.     minor_version   : 512
  923.     compatible_brands: isomiso2mp41
  924.     encoder         : Lavf56.36.100
  925.   Duration: 00:03:37.41, start: 0.000000, bitrate: 254 kb/s
  926.     Stream #0:0(und): Audio: aac (LC) (mp4a / 0x6134706D), 44100 Hz, stereo, fltp, 253 kb/s (default)
  927.     Metadata:
  928.       handler_name    : SoundHandler
  929. MEDIA CHANGED in "/org/freedesktop/UDisks2/block_devices/sr0" ; size is: 0
  930. MEDIA CHANGED in "/org/freedesktop/UDisks2/block_devices/sr0" ; size is: 652032000
RAW Paste Data
We use cookies for various purposes including analytics. By continuing to use Pastebin, you agree to our use of cookies as described in the Cookies Policy. OK, I Understand
 
Top