Guest User

Untitled

a guest
May 20th, 2020
21
Never
Not a member of Pastebin yet? Sign Up, it unlocks many cool features!
  1. General
  2. Unique ID : 316970841768745445638237335901380011290 (0xEE765D12A967AAF64B558CDF9E8BE51A)
  3. Complete name : E:\Video111\Dolittle.2020.Lic.BDRip.720p.seleZen.mkv
  4. Format : Matroska
  5. Format version : Version 4
  6. File size : 6.54 GiB
  7. Duration : 1 h 41 min
  8. Overall bit rate : 9 229 kb/s
  9. Movie name : Dolittle 2020 from селезень
  10. Encoded date : UTC 2020-05-20 11:58:31
  11. Writing application : mkvmerge v40.0.0 ('Old Town Road + Pony') 64-bit
  12. Writing library : libebml v1.3.9 + libmatroska v1.5.2
  13. Cover : Yes
  14. Attachments : cover.jpg
  15.  
  16. Video
  17. ID : 1
  18. Format : AVC
  19. Format/Info : Advanced Video Codec
  20. Format profile : High@L4.1
  21. Format settings : CABAC / 9 Ref Frames
  22. Format settings, CABAC : Yes
  23. Format settings, Reference : 9 frames
  24. Codec ID : V_MPEG4/ISO/AVC
  25. Duration : 1 h 41 min
  26. Bit rate : 7 500 kb/s
  27. Width : 1 280 pixels
  28. Height : 692 pixels
  29. Display aspect ratio : 1.85:1
  30. Frame rate mode : Constant
  31. Frame rate : 23.976 (24000/1001) FPS
  32. Color space : YUV
  33. Chroma subsampling : 4:2:0
  34. Bit depth : 8 bits
  35. Scan type : Progressive
  36. Bits/(Pixel*Frame) : 0.353
  37. Stream size : 5.31 GiB (81%)
  38. Title : Encoded by seleZen
  39. Writing library : x264 core 142 r2431+42 c69a006 tMod [8-bit@all X86_64]
  40. Encoding settings : cabac=1 / ref=9 / deblock=1:-2:-2 / analyse=0x3:0x133 / me=umh / subme=10 / psy=1 / fade_compensate=0.00 / psy_rd=1.00:0.00 / mixed_ref=1 / me_range=32 / chroma_me=1 / trellis=2 / 8x8dct=1 / cqm=0 / deadzone=21,11 / fast_pskip=0 / chroma_qp_offset=-2 / threads=24 / lookahead_threads=4 / sliced_threads=0 / nr=0 / decimate=0 / interlaced=0 / bluray_compat=0 / constrained_intra=0 / fgo=0 / bframes=8 / b_pyramid=2 / b_adapt=2 / b_bias=0 / direct=3 / weightb=1 / open_gop=0 / weightp=2 / keyint=240 / keyint_min=23 / scenecut=40 / intra_refresh=0 / rc_lookahead=50 / rc=2pass / mbtree=0 / bitrate=7500 / ratetol=1.0 / qcomp=0.60 / qpmin=0:0:0 / qpmax=51:51:51 / qpstep=4 / cplxblur=20.0 / qblur=0.5 / vbv_maxrate=50000 / vbv_bufsize=62500 / nal_hrd=none / filler=0 / ip_ratio=1.40 / pb_ratio=1.30 / aq=3:0.80 / aq-sensitivity=10.00 / aq-factor=1.00:1.00:1.00 / aq2=0 / aq3=0
  41. Language : English
  42. Default : Yes
  43. Forced : No
  44.  
  45. Audio #1
  46. ID : 2
  47. Format : AC-3
  48. Format/Info : Audio Coding 3
  49. Commercial name : Dolby Digital
  50. Codec ID : A_AC3
  51. Duration : 1 h 41 min
  52. Bit rate mode : Constant
  53. Bit rate : 640 kb/s
  54. Channel(s) : 6 channels
  55. Channel layout : L R C LFE Ls Rs
  56. Sampling rate : 48.0 kHz
  57. Frame rate : 31.250 FPS (1536 SPF)
  58. Compression mode : Lossy
  59. Stream size : 464 MiB (7%)
  60. Title : Dub [License]
  61. Language : Russian
  62. Service kind : Complete Main
  63. Default : Yes
  64. Forced : Yes
  65.  
  66. Audio #2
  67. ID : 3
  68. Format : AC-3
  69. Format/Info : Audio Coding 3
  70. Commercial name : Dolby Digital
  71. Codec ID : A_AC3
  72. Duration : 1 h 41 min
  73. Bit rate mode : Constant
  74. Bit rate : 448 kb/s
  75. Channel(s) : 6 channels
  76. Channel layout : L R C LFE Ls Rs
  77. Sampling rate : 48.0 kHz
  78. Frame rate : 31.250 FPS (1536 SPF)
  79. Compression mode : Lossy
  80. Stream size : 325 MiB (5%)
  81. Title : MVO [HDRezka Studio]
  82. Language : Russian
  83. Service kind : Complete Main
  84. Default : No
  85. Forced : No
  86.  
  87. Audio #3
  88. ID : 4
  89. Format : AC-3
  90. Format/Info : Audio Coding 3
  91. Commercial name : Dolby Digital
  92. Codec ID : A_AC3
  93. Duration : 1 h 41 min
  94. Bit rate mode : Constant
  95. Bit rate : 192 kb/s
  96. Channel(s) : 2 channels
  97. Channel layout : L R
  98. Sampling rate : 48.0 kHz
  99. Frame rate : 31.250 FPS (1536 SPF)
  100. Compression mode : Lossy
  101. Stream size : 139 MiB (2%)
  102. Title : Dub
  103. Language : Ukrainian
  104. Service kind : Complete Main
  105. Default : No
  106. Forced : No
  107.  
  108. Audio #4
  109. ID : 5
  110. Format : AC-3
  111. Format/Info : Audio Coding 3
  112. Commercial name : Dolby Digital
  113. Codec ID : A_AC3
  114. Duration : 1 h 41 min
  115. Bit rate mode : Constant
  116. Bit rate : 448 kb/s
  117. Channel(s) : 6 channels
  118. Channel layout : L R C LFE Ls Rs
  119. Sampling rate : 48.0 kHz
  120. Frame rate : 31.250 FPS (1536 SPF)
  121. Compression mode : Lossy
  122. Stream size : 325 MiB (5%)
  123. Title : Original
  124. Language : English
  125. Service kind : Complete Main
  126. Default : No
  127. Forced : No
  128.  
  129. Text #1
  130. ID : 6
  131. Format : UTF-8
  132. Codec ID : S_TEXT/UTF8
  133. Codec ID/Info : UTF-8 Plain Text
  134. Duration : 3 min 40 s
  135. Bit rate : 113 b/s
  136. Count of elements : 62
  137. Stream size : 3.06 KiB (0%)
  138. Title : Forced [For Dubbing]
  139. Language : Russian
  140. Default : Yes
  141. Forced : Yes
  142.  
  143. Text #2
  144. ID : 7
  145. Format : UTF-8
  146. Codec ID : S_TEXT/UTF8
  147. Codec ID/Info : UTF-8 Plain Text
  148. Duration : 4 min 11 s
  149. Bit rate : 112 b/s
  150. Count of elements : 72
  151. Stream size : 3.47 KiB (0%)
  152. Title : Forced [For HDRezka Studio]
  153. Language : Russian
  154. Default : No
  155. Forced : No
  156.  
  157. Text #3
  158. ID : 8
  159. Format : UTF-8
  160. Codec ID : S_TEXT/UTF8
  161. Codec ID/Info : UTF-8 Plain Text
  162. Duration : 1 h 32 min
  163. Bit rate : 97 b/s
  164. Count of elements : 1393
  165. Stream size : 66.0 KiB (0%)
  166. Title : Full
  167. Language : Russian
  168. Default : No
  169. Forced : No
  170.  
  171. Text #4
  172. ID : 9
  173. Format : UTF-8
  174. Codec ID : S_TEXT/UTF8
  175. Codec ID/Info : UTF-8 Plain Text
  176. Duration : 20 s 500 ms
  177. Bit rate : 114 b/s
  178. Count of elements : 4
  179. Stream size : 293 Bytes (0%)
  180. Title : Forced
  181. Language : Ukrainian
  182. Default : No
  183. Forced : No
  184.  
  185. Text #5
  186. ID : 10
  187. Format : UTF-8
  188. Codec ID : S_TEXT/UTF8
  189. Codec ID/Info : UTF-8 Plain Text
  190. Duration : 1 h 41 min
  191. Bit rate : 73 b/s
  192. Count of elements : 2060
  193. Stream size : 54.8 KiB (0%)
  194. Title : Full
  195. Language : English
  196. Default : No
  197. Forced : No
  198.  
  199. Menu
  200. 00:00:00.000 : en:Chapter 01
  201. 00:04:22.595 : en:Chapter 02
  202. 00:09:36.826 : en:Chapter 03
  203. 00:14:31.245 : en:Chapter 04
  204. 00:18:37.324 : en:Chapter 05
  205. 00:20:57.798 : en:Chapter 06
  206. 00:23:02.172 : en:Chapter 07
  207. 00:29:30.226 : en:Chapter 08
  208. 00:35:58.156 : en:Chapter 09
  209. 00:39:08.471 : en:Chapter 10
  210. 00:45:47.745 : en:Chapter 11
  211. 00:48:28.906 : en:Chapter 12
  212. 00:53:06.933 : en:Chapter 13
  213. 00:59:13.466 : en:Chapter 14
  214. 01:04:55.141 : en:Chapter 15
  215. 01:11:16.772 : en:Chapter 16
  216. 01:17:05.996 : en:Chapter 17
  217. 01:23:36.011 : en:Chapter 18
  218. 01:30:02.063 : en:Chapter 19
  219. 01:32:58.364 : en:Chapter 20
RAW Paste Data