SHARE
TWEET

[GJM-DDY] Alice to Zouroku - 02 [14643C61].mkv

HYBRID_BEING May 14th, 2017 528 Never
Not a member of Pastebin yet? Sign Up, it unlocks many cool features!
  1. General
  2. Unique ID                                : 178855442647937903376721482406078258139 (0x868E4E26415C2F5EB4921EE8403D1BDB)
  3. Complete name                            : [GJM-DDY] Alice to Zouroku - 02 [14643C61].mkv
  4. Format                                   : Matroska
  5. Format version                           : Version 4 / Version 2
  6. File size                                : 387 MiB
  7. Duration                                 : 23mn 40s
  8. Overall bit rate                         : 2 287 Kbps
  9. Encoded date                             : UTC 2017-04-13 03:39:52
  10. Writing application                      : mkvmerge v10.0.0 ('To Drown In You') 32bit
  11. Writing library                          : libebml v1.3.4 + libmatroska v1.4.5
  12. Attachments                              : GANDHISANS-BOLD.OTF / GANDHISANS-BOLDITALIC.OTF / GLORIAHALLELUJAH.TTF / HIROSHIGESTD-BOLD.TTF / ROBOTO-MEDIUM.TTF / SOURCESANSPRO-REGULAR.OTF / TYPOROUNDBOLDDEMO.TTF / ALEGREYA-REGULAR.OTF / ARIASCRIPTSSK.TTF
  13.  
  14. Video
  15. ID                                       : 1
  16. Format                                   : AVC
  17. Format/Info                              : Advanced Video Codec
  18. Format profile                           : High 10@L5.1
  19. Format settings, CABAC                   : Yes
  20. Format settings, ReFrames                : 16 frames
  21. Codec ID                                 : V_MPEG4/ISO/AVC
  22. Duration                                 : 23mn 40s
  23. Bit rate                                 : 2 149 Kbps
  24. Width                                    : 1 920 pixels
  25. Height                                   : 1 080 pixels
  26. Display aspect ratio                     : 16:9
  27. Frame rate mode                          : Constant
  28. Frame rate                               : 23.976 (24000/1001) fps
  29. Color space                              : YUV
  30. Chroma subsampling                       : 4:2:0
  31. Bit depth                                : 10 bits
  32. Scan type                                : Progressive
  33. Bits/(Pixel*Frame)                       : 0.043
  34. Stream size                              : 364 MiB (94%)
  35. Writing library                          : x264 core 148 r2762+56 6284cf3 t_mod_Custom [10-bit@all X86_64]
  36. Encoding settings                        : cabac=1 / ref=16 / deblock=1:0:0 / analyse=0x3:0x133 / me=umh / subme=10 / psy=1 / fade_compensate=0.75 / psy_rd=0.75:0.00 / mixed_ref=1 / me_range=24 / chroma_me=1 / trellis=2 / 8x8dct=1 / cqm=0 / deadzone=21,11 / fast_pskip=1 / chroma_qp_offset=-2 / threads=12 / lookahead_threads=3 / sliced_threads=0 / nr=0 / decimate=1 / interlaced=0 / bluray_compat=0 / constrained_intra=0 / fgo=0 / bframes=10 / b_pyramid=2 / b_adapt=2 / b_bias=0 / direct=3 / weightb=1 / open_gop=0 / weightp=2 / keyint=250 / keyint_min=23 / scenecut=40 / intra_refresh=0 / rc_lookahead=60 / rc=crf / mbtree=1 / crf=17.0000 / qcomp=0.75 / qpmin=0:0:0 / qpmax=81:81:81 / qpstep=4 / ip_ratio=1.40 / aq=3:0.75 / aq-sensitivity=10.00 / aq-factor=1.00:1.00:1.00 / aq2=0 / aq3=0
  37. Language                                 : Japanese
  38. Default                                  : Yes
  39. Forced                                   : No
  40. Color range                              : Limited
  41. Matrix coefficients                      : BT.709
  42.  
  43. Audio
  44. ID                                       : 2
  45. Format                                   : AAC
  46. Format/Info                              : Advanced Audio Codec
  47. Format profile                           : LC
  48. Codec ID                                 : A_AAC
  49. Duration                                 : 23mn 40s
  50. Bit rate                                 : 128 Kbps
  51. Channel(s)                               : 2 channels
  52. Channel positions                        : Front: L R
  53. Sampling rate                            : 44.1 KHz
  54. Frame rate                               : 43.066 fps (1024 spf)
  55. Compression mode                         : Lossy
  56. Stream size                              : 21.7 MiB (6%)
  57. Language                                 : Japanese
  58. Default                                  : Yes
  59. Forced                                   : No
  60.  
  61. Text
  62. ID                                       : 3
  63. Format                                   : ASS
  64. Codec ID                                 : S_TEXT/ASS
  65. Codec ID/Info                            : Advanced Sub Station Alpha
  66. Duration                                 : 23mn 33s
  67. Bit rate                                 : 1 894 bps
  68. Count of elements                        : 2085
  69. Compression mode                         : Lossless
  70. Stream size                              : 327 KiB (0%)
  71. Title                                    : No Honorifics
  72. Language                                 : English
  73. Default                                  : Yes
  74. Forced                                   : No
  75.  
  76. Menu
  77. 00:00:00.000                             : en:Prologue
  78. 00:01:19.996                             : en:Opening
  79. 00:02:50.044                             : en:Part A
  80. 00:10:58.991                             : en:Part B
  81. 00:21:42.009                             : en:Ending
  82. 00:23:11.973                             : en:Part C
  83. 00:23:34.996                             : en:Preview
RAW Paste Data
We use cookies for various purposes including analytics. By continuing to use Pastebin, you agree to our use of cookies as described in the Cookies Policy. OK, I Understand
Top