GrabHD

Untitled

Mar 16th, 2020
135
Never
Not a member of Pastebin yet? Sign Up, it unlocks many cool features!
  1. Общее
  2. Уникальный идентификатор : 219894921633589751084624238174629475026 (0xA56E38AEEF1CC98B95FDFC6C573732D2)
  3. Полное имя : D:\Кинозал\Koma.2020.WEB-DL.(1080p).Getty.mkv
  4. Формат : Matroska
  5. Версия формата : Version 4 / Version 2
  6. Размер файла : 4,11 Гбайт
  7. Продолжительность : 1 ч. 50 м.
  8. Общий поток : 5296 Кбит/сек
  9. Название фильма : Koma.2020.WEB-DL.(1080p).Getty
  10. Дата кодирования : UTC 2020-03-11 23:54:17
  11. Программа кодирования : mkvmerge v7.8.0 ('River Man') 32bit built on Mar 27 2015 16:18:02
  12. Библиотека кодирования : libebml v1.3.1 + libmatroska v1.4.2
  13.  
  14. Видео
  15. Идентификатор : 1
  16. Формат : AVC
  17. Формат/Информация : Advanced Video Codec
  18. Профиль формата : High@L4
  19. Настройки формата : CABAC / 4 Ref Frames
  20. Параметр CABAC формата : Да
  21. Параметр RefFrames формата : 4 кадра
  22. Параметр GOP формата : M=7, N=48
  23. Идентификатор кодека : V_MPEG4/ISO/AVC
  24. Продолжительность : 1 ч. 50 м.
  25. Битрейт : 5103 Кбит/сек
  26. Ширина : 1920 пикселей
  27. Высота : 800 пикселей
  28. Соотношение сторон : 2,40:1
  29. Режим частоты кадров : Постоянный
  30. Частота кадров : 24,000 кадра/сек
  31. Цветовое пространство : YUV
  32. Субдискретизация насыщенности : 4:2:0
  33. Битовая глубина : 8 бит
  34. Тип развёртки : Прогрессивная
  35. Бит/(Пиксели*Кадры) : 0.138
  36. Размер потока : 3,96 Гбайт (96%)
  37. Default : Да
  38. Forced : Нет
  39.  
  40. Аудио
  41. Идентификатор : 2
  42. Формат : AC-3
  43. Формат/Информация : Audio Coding 3
  44. Параметр Endianness формата : Big
  45. Идентификатор кодека : A_AC3
  46. Продолжительность : 1 ч. 50 м.
  47. Вид битрейта : Постоянный
  48. Битрейт : 192 Кбит/сек
  49. Каналы : 2 канала
  50. Расположение каналов : Front: L R
  51. Частота : 48,0 КГц
  52. Частота кадров : 31,250 кадров/сек (1536 SPF)
  53. Битовая глубина : 16 бит
  54. Метод сжатия : С потерями
  55. Размер потока : 152 Мбайт (4%)
  56. ServiceKind/String : Complete Main
  57. Default : Да
  58. Forced : Нет
RAW Paste Data