SHARE
TWEET

3I Log

mhimranhossain97 Dec 10th, 2019 72 Never
Not a member of Pastebin yet? Sign Up, it unlocks many cool features!
  1. [10:54:10] gtkgui: HandBrake 1.2.1 (2019021900) - Linux x86_64 - https://handbrake.fr
  2. [10:54:11] hb_init: starting libhb thread
  3. [10:54:11] hb_init: starting libhb thread
  4. [10:54:11] hb_init: starting libhb thread
  5. [10:54:20] CPU: Intel(R) Pentium(R) CPU G4560 @ 3.50GHz
  6. [10:54:20]  - Intel microarchitecture Kaby Lake
  7. [10:54:20]  - logical processor count: 4
  8. [10:54:20] hb_scan: path=/home/mh/Misc/Remux/3.Idiots.2009.REPACK.1080p.BluRay.REMUX.AVC.DTS-HD.MA.5.1-T00thLe$$.mkv, title_index=0
  9. udfread ERROR: ECMA 167 Volume Recognition failed
  10. disc.c:323: failed opening UDF image /home/mh/Misc/Remux/3.Idiots.2009.REPACK.1080p.BluRay.REMUX.AVC.DTS-HD.MA.5.1-T00thLe$$.mkv
  11. disc.c:424: error opening file BDMV/index.bdmv
  12. disc.c:424: error opening file BDMV/BACKUP/index.bdmv
  13. [10:54:20] bd: not a bd - trying as a stream/file instead
  14. libdvdnav: Using dvdnav version 6.0.0
  15. libdvdread:DVDOpenFileUDF:UDFFindFile /VIDEO_TS/VIDEO_TS.IFO failed
  16. libdvdread:DVDOpenFileUDF:UDFFindFile /VIDEO_TS/VIDEO_TS.BUP failed
  17. libdvdread: Can't open file VIDEO_TS.IFO.
  18. libdvdnav: vm: failed to read VIDEO_TS.IFO
  19. [10:54:20] dvd: not a dvd - trying as a stream/file instead
  20. Input #0, matroska,webm, from '/home/mh/Misc/Remux/3.Idiots.2009.REPACK.1080p.BluRay.REMUX.AVC.DTS-HD.MA.5.1-T00thLe$$.mkv':
  21.   Metadata:
  22.     title           : 3 Idiots (2009)
  23.     encoder         : libebml v1.3.9 + libmatroska v1.5.2
  24.     creation_time   : 2019-09-05T15:53:03.000000Z
  25.   Duration: 02:51:07.29, start: 0.000000, bitrate: 28101 kb/s
  26.     Chapter #0:0: start 0.000000, end 67.375000
  27.     Metadata:
  28.       title           : Opening
  29.     Chapter #0:1: start 67.375000, end 503.041000
  30.     Metadata:
  31.       title           : Farhan Fakes Heart Attack
  32.     Chapter #0:2: start 503.041000, end 804.416000
  33.     Metadata:
  34.       title           : Behti Hawa Sa Tha Wo...
  35.     Chapter #0:3: start 804.416000, end 1087.666000
  36.     Metadata:
  37.       title           : Rancho Arrives
  38.     Chapter #0:4: start 1087.666000, end 1393.000000
  39.     Metadata:
  40.       title           : Director Addresses Students
  41.     Chapter #0:5: start 1393.000000, end 1729.250000
  42.     Metadata:
  43.       title           : Definition of Machine
  44.     Chapter #0:6: start 1729.250000, end 1802.208000
  45.     Metadata:
  46.       title           : Give Me Some Sunshine...
  47.     Chapter #0:7: start 1802.208000, end 1889.041000
  48.     Metadata:
  49.       title           : "Aal izz Well" Philosophy
  50.     Chapter #0:8: start 1889.041000, end 2229.250000
  51.     Metadata:
  52.       title           : Aal Izz Well...
  53.     Chapter #0:9: start 2229.250000, end 2674.000000
  54.     Metadata:
  55.       title           : Rancho Confronts Director
  56.     Chapter #0:10: start 2674.000000, end 3595.333000
  57.     Metadata:
  58.       title           : Raju's Black and White House
  59.     Chapter #0:11: start 3595.333000, end 3987.500000
  60.     Metadata:
  61.       title           : Chatur's Speech
  62.     Chapter #0:12: start 3987.500000, end 4452.083000
  63.     Metadata:
  64.       title           : Pia Breaks Up With Suhas
  65.     Chapter #0:13: start 4452.083000, end 4847.125000
  66.     Metadata:
  67.       title           : Zoobi Doobi...
  68.     Chapter #0:14: start 4847.125000, end 5103.416000
  69.     Metadata:
  70.       title           : Results Are Out
  71.     Chapter #0:15: start 5103.416000, end 5304.833000
  72.     Metadata:
  73.       title           : Reaching Shimla
  74.     Chapter #0:16: start 5304.833000, end 5810.833000
  75.     Metadata:
  76.       title           : Rancho's Mystery
  77.     Chapter #0:17: start 5810.833000, end 6178.416000
  78.     Metadata:
  79.       title           : Director Humilates Farhan and Raju
  80.     Chapter #0:18: start 6178.416000, end 6461.041000
  81.     Metadata:
  82.       title           : Drunk Rancho Lands At Director's House
  83.     Chapter #0:19: start 6461.041000, end 6723.000000
  84.     Metadata:
  85.       title           : Induction Motor
  86.     Chapter #0:20: start 6723.000000, end 7084.708000
  87.     Metadata:
  88.       title           : Jaane Rujne Denge Nahin...
  89.     Chapter #0:21: start 7084.708000, end 7741.541000
  90.     Metadata:
  91.       title           : Farhan and Raju Dare to Speak
  92.     Chapter #0:22: start 7741.541000, end 7900.666000
  93.     Metadata:
  94.       title           : Drunk Pia Comes to Rancho's Room
  95.     Chapter #0:23: start 7900.666000, end 8298.625000
  96.     Metadata:
  97.       title           : Pia's Wedding
  98.     Chapter #0:24: start 8298.625000, end 8654.333000
  99.     Metadata:
  100.       title           : Rancho Steals Question Paper
  101.     Chapter #0:25: start 8654.333000, end 9466.041000
  102.     Metadata:
  103.       title           : Child Delivery
  104.     Chapter #0:26: start 9466.041000, end 10113.241000
  105.     Metadata:
  106.       title           : Reaching Ladakh
  107.     Chapter #0:27: start 10113.241000, end 10267.292000
  108.     Metadata:
  109.       title           : End Credits
  110.     Stream #0:0(eng): Video: h264 (High), yuv420p(tv, bt709, progressive), 1920x1080 [SAR 1:1 DAR 16:9], 24 fps, 24 tbr, 1k tbn, 48 tbc (default)
  111.     Metadata:
  112.       title           : MPEG-4 AVC Video / 25500 kbps / 1080p / 24 fps / 16:9 / High Profile 4.1
  113.       BPS-eng         : 25498755
  114.       DURATION-eng    : 02:51:07.292000000
  115.       NUMBER_OF_FRAMES-eng: 246415
  116.       NUMBER_OF_BYTES-eng: 32725395814
  117.       _STATISTICS_WRITING_APP-eng: mkvmerge v37.0.0 ('Leave It') 64-bit
  118.       _STATISTICS_WRITING_DATE_UTC-eng: 2019-09-05 15:53:03
  119.       _STATISTICS_TAGS-eng: BPS DURATION NUMBER_OF_FRAMES NUMBER_OF_BYTES
  120.     Stream #0:1(hin): Audio: dts (DTS-HD MA), 48000 Hz, 5.1(side), s16p (default)
  121.     Metadata:
  122.       title           : DTS-HD Master Audio / Hindi / 2288 kbps / 5.1 / 48 kHz / 16-bits
  123.       BPS-eng         : 2288085
  124.       DURATION-eng    : 02:51:06.006000000
  125.       NUMBER_OF_FRAMES-eng: 962438
  126.       NUMBER_OF_BYTES-eng: 2936187560
  127.       _STATISTICS_WRITING_APP-eng: mkvmerge v37.0.0 ('Leave It') 64-bit
  128.       _STATISTICS_WRITING_DATE_UTC-eng: 2019-09-05 15:53:03
  129.       _STATISTICS_TAGS-eng: BPS DURATION NUMBER_OF_FRAMES NUMBER_OF_BYTES
  130.     Stream #0:2(eng): Audio: ac3, 48000 Hz, stereo, fltp, 224 kb/s
  131.     Metadata:
  132.       title           : Commentary with Director: Rajkumar Hirani / Dolby Digital Audio / Hindi + English (Commentary)/ 224 kbps / 2.0 / 48 kHz
  133.       BPS-eng         : 224000
  134.       DURATION-eng    : 02:51:05.984000000
  135.       NUMBER_OF_FRAMES-eng: 320812
  136.       NUMBER_OF_BYTES-eng: 287447552
  137.       _STATISTICS_WRITING_APP-eng: mkvmerge v37.0.0 ('Leave It') 64-bit
  138.       _STATISTICS_WRITING_DATE_UTC-eng: 2019-09-05 15:53:03
  139.       _STATISTICS_TAGS-eng: BPS DURATION NUMBER_OF_FRAMES NUMBER_OF_BYTES
  140.     Stream #0:3(eng): Subtitle: hdmv_pgs_subtitle (default)
  141.     Metadata:
  142.       title           : English
  143.       BPS-eng         : 33944
  144.       DURATION-eng    : 02:46:55.917000000
  145.       NUMBER_OF_FRAMES-eng: 4266
  146.       NUMBER_OF_BYTES-eng: 42497662
  147.       _STATISTICS_WRITING_APP-eng: mkvmerge v37.0.0 ('Leave It') 64-bit
  148.       _STATISTICS_WRITING_DATE_UTC-eng: 2019-09-05 15:53:03
  149.       _STATISTICS_TAGS-eng: BPS DURATION NUMBER_OF_FRAMES NUMBER_OF_BYTES
  150.     Stream #0:4(ara): Subtitle: hdmv_pgs_subtitle
  151.     Metadata:
  152.       title           : Arabic
  153.       BPS-eng         : 21310
  154.       DURATION-eng    : 02:46:55.750000000
  155.       NUMBER_OF_FRAMES-eng: 4274
  156.       NUMBER_OF_BYTES-eng: 26679944
  157.       _STATISTICS_WRITING_APP-eng: mkvmerge v37.0.0 ('Leave It') 64-bit
  158.       _STATISTICS_WRITING_DATE_UTC-eng: 2019-09-05 15:53:03
  159.       _STATISTICS_TAGS-eng: BPS DURATION NUMBER_OF_FRAMES NUMBER_OF_BYTES
  160.     Stream #0:5(dut): Subtitle: hdmv_pgs_subtitle, 1920x1080
  161.     Metadata:
  162.       title           : Dutch
  163.       BPS-eng         : 32473
  164.       DURATION-eng    : 02:48:33.292000000
  165.       NUMBER_OF_FRAMES-eng: 4278
  166.       NUMBER_OF_BYTES-eng: 41051143
  167.       _STATISTICS_WRITING_APP-eng: mkvmerge v37.0.0 ('Leave It') 64-bit
  168.       _STATISTICS_WRITING_DATE_UTC-eng: 2019-09-05 15:53:03
  169.       _STATISTICS_TAGS-eng: BPS DURATION NUMBER_OF_FRAMES NUMBER_OF_BYTES
  170.     Stream #0:6(fre): Subtitle: hdmv_pgs_subtitle
  171.     Metadata:
  172.       title           : French
  173.       BPS-eng         : 33807
  174.       DURATION-eng    : 02:46:55.750000000
  175.       NUMBER_OF_FRAMES-eng: 4453
  176.       NUMBER_OF_BYTES-eng: 42326132
  177.       _STATISTICS_WRITING_APP-eng: mkvmerge v37.0.0 ('Leave It') 64-bit
  178.       _STATISTICS_WRITING_DATE_UTC-eng: 2019-09-05 15:53:03
  179.       _STATISTICS_TAGS-eng: BPS DURATION NUMBER_OF_FRAMES NUMBER_OF_BYTES
  180.     Stream #0:7(por): Subtitle: hdmv_pgs_subtitle
  181.     Metadata:
  182.       title           : Portuguese
  183.       BPS-eng         : 33233
  184.       DURATION-eng    : 02:46:55.750000000
  185.       NUMBER_OF_FRAMES-eng: 4401
  186.       NUMBER_OF_BYTES-eng: 41607592
  187.       _STATISTICS_WRITING_APP-eng: mkvmerge v37.0.0 ('Leave It') 64-bit
  188.       _STATISTICS_WRITING_DATE_UTC-eng: 2019-09-05 15:53:03
  189.       _STATISTICS_TAGS-eng: BPS DURATION NUMBER_OF_FRAMES NUMBER_OF_BYTES
  190.     Stream #0:8(may): Subtitle: hdmv_pgs_subtitle
  191.     Metadata:
  192.       title           : Malay
  193.       BPS-eng         : 39330
  194.       DURATION-eng    : 02:46:55.750000000
  195.       NUMBER_OF_FRAMES-eng: 4511
  196.       NUMBER_OF_BYTES-eng: 49239946
  197.       _STATISTICS_WRITING_APP-eng: mkvmerge v37.0.0 ('Leave It') 64-bit
  198.       _STATISTICS_WRITING_DATE_UTC-eng: 2019-09-05 15:53:03
  199.       _STATISTICS_TAGS-eng: BPS DURATION NUMBER_OF_FRAMES NUMBER_OF_BYTES
  200.     Stream #0:9(spa): Subtitle: hdmv_pgs_subtitle
  201.     Metadata:
  202.       title           : Spanish
  203.       BPS-eng         : 33344
  204.       DURATION-eng    : 02:46:55.750000000
  205.       NUMBER_OF_FRAMES-eng: 4395
  206.       NUMBER_OF_BYTES-eng: 41746625
  207.       _STATISTICS_WRITING_APP-eng: mkvmerge v37.0.0 ('Leave It') 64-bit
  208.       _STATISTICS_WRITING_DATE_UTC-eng: 2019-09-05 15:53:03
  209.       _STATISTICS_TAGS-eng: BPS DURATION NUMBER_OF_FRAMES NUMBER_OF_BYTES
  210.     Stream #0:10: Video: mjpeg, yuvj420p(pc, bt470bg/unknown/unknown), 1000x1500 [SAR 1:1 DAR 2:3], 90k tbr, 90k tbn, 90k tbc
  211.     Metadata:
  212.       filename        : cover.jpg
  213.       mimetype        : image/jpeg
  214. [10:54:21] scan: decoding previews for title 1
  215. [10:54:21] scan: audio 0x1: dca, rate=48000Hz, bitrate=1 हिंदी (DTS-HD MA) (5.1 ch)
  216. [10:54:21] scan: audio 0x2: ac3, rate=48000Hz, bitrate=224000 English (AC3) (2.0 ch) (Dolby Surround)
  217. [10:54:22] scan: 10 previews, 1920x1080, 24.000 fps, autocrop = 132/132/0/0, aspect 16:9, PAR 1:1
  218. [10:54:22] libhb: scan thread found 1 valid title(s)
  219.  
  220. (ghb:2261): Gtk-WARNING **: 10:54:37.931: Failed to fetch network locations: Timeout was reached
  221. [11:02:38] gtkgui: Modified Preset: /Matroska/H.265 MKV 1080p30
  222. [11:02:38] 1 job(s) to process
  223. [11:02:38] json job:
  224. {
  225.     "Audio": {
  226.         "AudioList": [
  227.             {
  228.                 "Bitrate": 384,
  229.                 "DRC": 0.0,
  230.                 "Encoder": "ac3",
  231.                 "Gain": 0.0,
  232.                 "Mixdown": "5point1",
  233.                 "Quality": -3.0,
  234.                 "Samplerate": 0,
  235.                 "Track": 0
  236.             },
  237.             {
  238.                 "Bitrate": 192,
  239.                 "DRC": 0.0,
  240.                 "Encoder": "ac3",
  241.                 "Gain": 0.0,
  242.                 "Mixdown": "stereo",
  243.                 "Quality": -3.0,
  244.                 "Samplerate": 0,
  245.                 "Track": 1
  246.             }
  247.         ],
  248.         "CopyMask": [
  249.             "copy:aac"
  250.         ],
  251.         "FallbackEncoder": "av_aac"
  252.     },
  253.     "Destination": {
  254.         "AlignAVStart": false,
  255.         "ChapterList": [
  256.             {
  257.                 "Name": "Opening"
  258.             },
  259.             {
  260.                 "Name": "Farhan Fakes Heart Attack"
  261.             },
  262.             {
  263.                 "Name": "Behti Hawa Sa Tha Wo..."
  264.             },
  265.             {
  266.                 "Name": "Rancho Arrives"
  267.             },
  268.             {
  269.                 "Name": "Director Addresses Students"
  270.             },
  271.             {
  272.                 "Name": "Definition of Machine"
  273.             },
  274.             {
  275.                 "Name": "Give Me Some Sunshine..."
  276.             },
  277.             {
  278.                 "Name": "\"Aal izz Well\" Philosophy"
  279.             },
  280.             {
  281.                 "Name": "Aal Izz Well..."
  282.             },
  283.             {
  284.                 "Name": "Rancho Confronts Director"
  285.             },
  286.             {
  287.                 "Name": "Raju's Black and White House"
  288.             },
  289.             {
  290.                 "Name": "Chatur's Speech"
  291.             },
  292.             {
  293.                 "Name": "Pia Breaks Up With Suhas"
  294.             },
  295.             {
  296.                 "Name": "Zoobi Doobi..."
  297.             },
  298.             {
  299.                 "Name": "Results Are Out"
  300.             },
  301.             {
  302.                 "Name": "Reaching Shimla"
  303.             },
  304.             {
  305.                 "Name": "Rancho's Mystery"
  306.             },
  307.             {
  308.                 "Name": "Director Humilates Farhan and Raju"
  309.             },
  310.             {
  311.                 "Name": "Drunk Rancho Lands At Director's House"
  312.             },
  313.             {
  314.                 "Name": "Induction Motor"
  315.             },
  316.             {
  317.                 "Name": "Jaane Rujne Denge Nahin..."
  318.             },
  319.             {
  320.                 "Name": "Farhan and Raju Dare to Speak"
  321.             },
  322.             {
  323.                 "Name": "Drunk Pia Comes to Rancho's Room"
  324.             },
  325.             {
  326.                 "Name": "Pia's Wedding"
  327.             },
  328.             {
  329.                 "Name": "Rancho Steals Question Paper"
  330.             },
  331.             {
  332.                 "Name": "Child Delivery"
  333.             },
  334.             {
  335.                 "Name": "Reaching Ladakh"
  336.             },
  337.             {
  338.                 "Name": "End Credits"
  339.             }
  340.         ],
  341.         "ChapterMarkers": false,
  342.         "File": "/home/mh/Mult/Encode/3 Idiots 2009 1080p BluRay 10-Bit AC3 5.1 x265 - ElPro.mkv",
  343.         "InlineParameterSets": false,
  344.         "Mp4Options": {
  345.             "IpodAtom": false,
  346.             "Mp4Optimize": false
  347.         },
  348.         "Mux": "mkv"
  349.     },
  350.     "Filters": {
  351.         "FilterList": [
  352.             {
  353.                 "ID": 3,
  354.                 "Settings": {
  355.                     "block-height": "16",
  356.                     "block-thresh": "40",
  357.                     "block-width": "16",
  358.                     "filter-mode": "2",
  359.                     "mode": "3",
  360.                     "motion-thresh": "1",
  361.                     "spatial-metric": "2",
  362.                     "spatial-thresh": "1"
  363.                 }
  364.             },
  365.             {
  366.                 "ID": 4,
  367.                 "Settings": {
  368.                     "mode": "7"
  369.                 }
  370.             },
  371.             {
  372.                 "ID": 6,
  373.                 "Settings": {
  374.                     "mode": 1
  375.                 }
  376.             },
  377.             {
  378.                 "ID": 11,
  379.                 "Settings": {
  380.                     "crop-bottom": 132,
  381.                     "crop-left": 0,
  382.                     "crop-right": 0,
  383.                     "crop-top": 132,
  384.                     "height": 816,
  385.                     "width": 1920
  386.                 }
  387.             }
  388.         ]
  389.     },
  390.     "Metadata": {
  391.         "AlbumArtist": "Rajkumar Hirani",
  392.         "Description": "Don't be Stupid. Be an I.D.I.O.T.",
  393.         "Genre": "Comedy, Drama",
  394.         "LongDescription": "Two friends are searching for their long lost companion. They revisit their college days and recall the memories of their friend who inspired them to think differently, even as the rest of the world called them \"idiots\".\nFarhan Qureshi and Raju Rastogi want to re-unite with their fellow collegian, Rancho, after faking a stroke aboard an Air India plane, and excusing himself from his wife - trouser less - respectively. Enroute, they encounter another student, Chatur Ramalingam, now a successful businessman, who reminds them of a bet they had undertaken 10 years ago. The trio, while recollecting hilarious antics, including their run-ins with the Dean of Delhi's Imperial College of Engineering, Viru Sahastrabudhe, race to locate Rancho, at his last known address - little knowing the secret that was kept from them all this time.",
  395.         "Name": "3 Idiots 2009 1080p BluRay 10-Bit AC3 5.1 x265 - ElPro",
  396.         "ReleaseDate": "25 December, 2009"
  397.     },
  398.     "PAR": {
  399.         "Den": 1,
  400.         "Num": 1
  401.     },
  402.     "SequenceID": 0,
  403.     "Source": {
  404.         "Angle": 0,
  405.         "Path": "/home/mh/Misc/Remux/3.Idiots.2009.REPACK.1080p.BluRay.REMUX.AVC.DTS-HD.MA.5.1-T00thLe$$.mkv",
  406.         "Range": {
  407.             "End": 28,
  408.             "Start": 1,
  409.             "Type": "chapter"
  410.         },
  411.         "Title": 1
  412.     },
  413.     "Subtitle": {
  414.         "Search": {
  415.             "Burn": true,
  416.             "Default": false,
  417.             "Enable": false,
  418.             "Forced": true
  419.         },
  420.         "SubtitleList": [
  421.             {
  422.                 "Burn": false,
  423.                 "Default": false,
  424.                 "Forced": false,
  425.                 "Offset": 0,
  426.                 "Track": 0
  427.             },
  428.             {
  429.                 "Burn": false,
  430.                 "Default": false,
  431.                 "Forced": false,
  432.                 "Offset": 0,
  433.                 "Track": 1
  434.             },
  435.             {
  436.                 "Burn": false,
  437.                 "Default": false,
  438.                 "Forced": false,
  439.                 "Offset": 0,
  440.                 "Track": 2
  441.             },
  442.             {
  443.                 "Burn": false,
  444.                 "Default": false,
  445.                 "Forced": false,
  446.                 "Offset": 0,
  447.                 "Track": 3
  448.             },
  449.             {
  450.                 "Burn": false,
  451.                 "Default": false,
  452.                 "Forced": false,
  453.                 "Offset": 0,
  454.                 "Track": 4
  455.             },
  456.             {
  457.                 "Burn": false,
  458.                 "Default": false,
  459.                 "Forced": false,
  460.                 "Offset": 0,
  461.                 "Track": 6
  462.             }
  463.         ]
  464.     },
  465.     "Video": {
  466.         "Bitrate": 3200,
  467.         "ColorMatrix": 1,
  468.         "ColorPrimaries": 1,
  469.         "ColorTransfer": 1,
  470.         "Encoder": "x265_10bit",
  471.         "Level": "auto",
  472.         "Options": "",
  473.         "Preset": "medium",
  474.         "Profile": "auto",
  475.         "QSV": {
  476.             "AsyncDepth": 4,
  477.             "Decode": false
  478.         },
  479.         "Tune": "",
  480.         "Turbo": true,
  481.         "TwoPass": true
  482.     }
  483. }
  484. [11:02:39] CPU: Intel(R) Pentium(R) CPU G4560 @ 3.50GHz
  485. [11:02:39]  - Intel microarchitecture Kaby Lake
  486. [11:02:39]  - logical processor count: 4
  487. [11:02:39] hb_scan: path=/home/mh/Misc/Remux/3.Idiots.2009.REPACK.1080p.BluRay.REMUX.AVC.DTS-HD.MA.5.1-T00thLe$$.mkv, title_index=1
  488. udfread ERROR: ECMA 167 Volume Recognition failed
  489. disc.c:323: failed opening UDF image /home/mh/Misc/Remux/3.Idiots.2009.REPACK.1080p.BluRay.REMUX.AVC.DTS-HD.MA.5.1-T00thLe$$.mkv
  490. disc.c:424: error opening file BDMV/index.bdmv
  491. disc.c:424: error opening file BDMV/BACKUP/index.bdmv
  492. [11:02:39] bd: not a bd - trying as a stream/file instead
  493. libdvdnav: Using dvdnav version 6.0.0
  494. libdvdread:DVDOpenFileUDF:UDFFindFile /VIDEO_TS/VIDEO_TS.IFO failed
  495. libdvdread:DVDOpenFileUDF:UDFFindFile /VIDEO_TS/VIDEO_TS.BUP failed
  496. libdvdread: Can't open file VIDEO_TS.IFO.
  497. libdvdnav: vm: failed to read VIDEO_TS.IFO
  498. [11:02:40] dvd: not a dvd - trying as a stream/file instead
  499. Input #0, matroska,webm, from '/home/mh/Misc/Remux/3.Idiots.2009.REPACK.1080p.BluRay.REMUX.AVC.DTS-HD.MA.5.1-T00thLe$$.mkv':
  500.   Metadata:
  501.     title           : 3 Idiots (2009)
  502.     encoder         : libebml v1.3.9 + libmatroska v1.5.2
  503.     creation_time   : 2019-09-05T15:53:03.000000Z
  504.   Duration: 02:51:07.29, start: 0.000000, bitrate: 28101 kb/s
  505.     Chapter #0:0: start 0.000000, end 67.375000
  506.     Metadata:
  507.       title           : Opening
  508.     Chapter #0:1: start 67.375000, end 503.041000
  509.     Metadata:
  510.       title           : Farhan Fakes Heart Attack
  511.     Chapter #0:2: start 503.041000, end 804.416000
  512.     Metadata:
  513.       title           : Behti Hawa Sa Tha Wo...
  514.     Chapter #0:3: start 804.416000, end 1087.666000
  515.     Metadata:
  516.       title           : Rancho Arrives
  517.     Chapter #0:4: start 1087.666000, end 1393.000000
  518.     Metadata:
  519.       title           : Director Addresses Students
  520.     Chapter #0:5: start 1393.000000, end 1729.250000
  521.     Metadata:
  522.       title           : Definition of Machine
  523.     Chapter #0:6: start 1729.250000, end 1802.208000
  524.     Metadata:
  525.       title           : Give Me Some Sunshine...
  526.     Chapter #0:7: start 1802.208000, end 1889.041000
  527.     Metadata:
  528.       title           : "Aal izz Well" Philosophy
  529.     Chapter #0:8: start 1889.041000, end 2229.250000
  530.     Metadata:
  531.       title           : Aal Izz Well...
  532.     Chapter #0:9: start 2229.250000, end 2674.000000
  533.     Metadata:
  534.       title           : Rancho Confronts Director
  535.     Chapter #0:10: start 2674.000000, end 3595.333000
  536.     Metadata:
  537.       title           : Raju's Black and White House
  538.     Chapter #0:11: start 3595.333000, end 3987.500000
  539.     Metadata:
  540.       title           : Chatur's Speech
  541.     Chapter #0:12: start 3987.500000, end 4452.083000
  542.     Metadata:
  543.       title           : Pia Breaks Up With Suhas
  544.     Chapter #0:13: start 4452.083000, end 4847.125000
  545.     Metadata:
  546.       title           : Zoobi Doobi...
  547.     Chapter #0:14: start 4847.125000, end 5103.416000
  548.     Metadata:
  549.       title           : Results Are Out
  550.     Chapter #0:15: start 5103.416000, end 5304.833000
  551.     Metadata:
  552.       title           : Reaching Shimla
  553.     Chapter #0:16: start 5304.833000, end 5810.833000
  554.     Metadata:
  555.       title           : Rancho's Mystery
  556.     Chapter #0:17: start 5810.833000, end 6178.416000
  557.     Metadata:
  558.       title           : Director Humilates Farhan and Raju
  559.     Chapter #0:18: start 6178.416000, end 6461.041000
  560.     Metadata:
  561.       title           : Drunk Rancho Lands At Director's House
  562.     Chapter #0:19: start 6461.041000, end 6723.000000
  563.     Metadata:
  564.       title           : Induction Motor
  565.     Chapter #0:20: start 6723.000000, end 7084.708000
  566.     Metadata:
  567.       title           : Jaane Rujne Denge Nahin...
  568.     Chapter #0:21: start 7084.708000, end 7741.541000
  569.     Metadata:
  570.       title           : Farhan and Raju Dare to Speak
  571.     Chapter #0:22: start 7741.541000, end 7900.666000
  572.     Metadata:
  573.       title           : Drunk Pia Comes to Rancho's Room
  574.     Chapter #0:23: start 7900.666000, end 8298.625000
  575.     Metadata:
  576.       title           : Pia's Wedding
  577.     Chapter #0:24: start 8298.625000, end 8654.333000
  578.     Metadata:
  579.       title           : Rancho Steals Question Paper
  580.     Chapter #0:25: start 8654.333000, end 9466.041000
  581.     Metadata:
  582.       title           : Child Delivery
  583.     Chapter #0:26: start 9466.041000, end 10113.241000
  584.     Metadata:
  585.       title           : Reaching Ladakh
  586.     Chapter #0:27: start 10113.241000, end 10267.292000
  587.     Metadata:
  588.       title           : End Credits
  589.     Stream #0:0(eng): Video: h264 (High), yuv420p(tv, bt709, progressive), 1920x1080 [SAR 1:1 DAR 16:9], 24 fps, 24 tbr, 1k tbn, 48 tbc (default)
  590.     Metadata:
  591.       title           : MPEG-4 AVC Video / 25500 kbps / 1080p / 24 fps / 16:9 / High Profile 4.1
  592.       BPS-eng         : 25498755
  593.       DURATION-eng    : 02:51:07.292000000
  594.       NUMBER_OF_FRAMES-eng: 246415
  595.       NUMBER_OF_BYTES-eng: 32725395814
  596.       _STATISTICS_WRITING_APP-eng: mkvmerge v37.0.0 ('Leave It') 64-bit
  597.       _STATISTICS_WRITING_DATE_UTC-eng: 2019-09-05 15:53:03
  598.       _STATISTICS_TAGS-eng: BPS DURATION NUMBER_OF_FRAMES NUMBER_OF_BYTES
  599.     Stream #0:1(hin): Audio: dts (DTS-HD MA), 48000 Hz, 5.1(side), s16p (default)
  600.     Metadata:
  601.       title           : DTS-HD Master Audio / Hindi / 2288 kbps / 5.1 / 48 kHz / 16-bits
  602.       BPS-eng         : 2288085
  603.       DURATION-eng    : 02:51:06.006000000
  604.       NUMBER_OF_FRAMES-eng: 962438
  605.       NUMBER_OF_BYTES-eng: 2936187560
  606.       _STATISTICS_WRITING_APP-eng: mkvmerge v37.0.0 ('Leave It') 64-bit
  607.       _STATISTICS_WRITING_DATE_UTC-eng: 2019-09-05 15:53:03
  608.       _STATISTICS_TAGS-eng: BPS DURATION NUMBER_OF_FRAMES NUMBER_OF_BYTES
  609.     Stream #0:2(eng): Audio: ac3, 48000 Hz, stereo, fltp, 224 kb/s
  610.     Metadata:
  611.       title           : Commentary with Director: Rajkumar Hirani / Dolby Digital Audio / Hindi + English (Commentary)/ 224 kbps / 2.0 / 48 kHz
  612.       BPS-eng         : 224000
  613.       DURATION-eng    : 02:51:05.984000000
  614.       NUMBER_OF_FRAMES-eng: 320812
  615.       NUMBER_OF_BYTES-eng: 287447552
  616.       _STATISTICS_WRITING_APP-eng: mkvmerge v37.0.0 ('Leave It') 64-bit
  617.       _STATISTICS_WRITING_DATE_UTC-eng: 2019-09-05 15:53:03
  618.       _STATISTICS_TAGS-eng: BPS DURATION NUMBER_OF_FRAMES NUMBER_OF_BYTES
  619.     Stream #0:3(eng): Subtitle: hdmv_pgs_subtitle (default)
  620.     Metadata:
  621.       title           : English
  622.       BPS-eng         : 33944
  623.       DURATION-eng    : 02:46:55.917000000
  624.       NUMBER_OF_FRAMES-eng: 4266
  625.       NUMBER_OF_BYTES-eng: 42497662
  626.       _STATISTICS_WRITING_APP-eng: mkvmerge v37.0.0 ('Leave It') 64-bit
  627.       _STATISTICS_WRITING_DATE_UTC-eng: 2019-09-05 15:53:03
  628.       _STATISTICS_TAGS-eng: BPS DURATION NUMBER_OF_FRAMES NUMBER_OF_BYTES
  629.     Stream #0:4(ara): Subtitle: hdmv_pgs_subtitle
  630.     Metadata:
  631.       title           : Arabic
  632.       BPS-eng         : 21310
  633.       DURATION-eng    : 02:46:55.750000000
  634.       NUMBER_OF_FRAMES-eng: 4274
  635.       NUMBER_OF_BYTES-eng: 26679944
  636.       _STATISTICS_WRITING_APP-eng: mkvmerge v37.0.0 ('Leave It') 64-bit
  637.       _STATISTICS_WRITING_DATE_UTC-eng: 2019-09-05 15:53:03
  638.       _STATISTICS_TAGS-eng: BPS DURATION NUMBER_OF_FRAMES NUMBER_OF_BYTES
  639.     Stream #0:5(dut): Subtitle: hdmv_pgs_subtitle, 1920x1080
  640.     Metadata:
  641.       title           : Dutch
  642.       BPS-eng         : 32473
  643.       DURATION-eng    : 02:48:33.292000000
  644.       NUMBER_OF_FRAMES-eng: 4278
  645.       NUMBER_OF_BYTES-eng: 41051143
  646.       _STATISTICS_WRITING_APP-eng: mkvmerge v37.0.0 ('Leave It') 64-bit
  647.       _STATISTICS_WRITING_DATE_UTC-eng: 2019-09-05 15:53:03
  648.       _STATISTICS_TAGS-eng: BPS DURATION NUMBER_OF_FRAMES NUMBER_OF_BYTES
  649.     Stream #0:6(fre): Subtitle: hdmv_pgs_subtitle
  650.     Metadata:
  651.       title           : French
  652.       BPS-eng         : 33807
  653.       DURATION-eng    : 02:46:55.750000000
  654.       NUMBER_OF_FRAMES-eng: 4453
  655.       NUMBER_OF_BYTES-eng: 42326132
  656.       _STATISTICS_WRITING_APP-eng: mkvmerge v37.0.0 ('Leave It') 64-bit
  657.       _STATISTICS_WRITING_DATE_UTC-eng: 2019-09-05 15:53:03
  658.       _STATISTICS_TAGS-eng: BPS DURATION NUMBER_OF_FRAMES NUMBER_OF_BYTES
  659.     Stream #0:7(por): Subtitle: hdmv_pgs_subtitle
  660.     Metadata:
  661.       title           : Portuguese
  662.       BPS-eng         : 33233
  663.       DURATION-eng    : 02:46:55.750000000
  664.       NUMBER_OF_FRAMES-eng: 4401
  665.       NUMBER_OF_BYTES-eng: 41607592
  666.       _STATISTICS_WRITING_APP-eng: mkvmerge v37.0.0 ('Leave It') 64-bit
  667.       _STATISTICS_WRITING_DATE_UTC-eng: 2019-09-05 15:53:03
  668.       _STATISTICS_TAGS-eng: BPS DURATION NUMBER_OF_FRAMES NUMBER_OF_BYTES
  669.     Stream #0:8(may): Subtitle: hdmv_pgs_subtitle
  670.     Metadata:
  671.       title           : Malay
  672.       BPS-eng         : 39330
  673.       DURATION-eng    : 02:46:55.750000000
  674.       NUMBER_OF_FRAMES-eng: 4511
  675.       NUMBER_OF_BYTES-eng: 49239946
  676.       _STATISTICS_WRITING_APP-eng: mkvmerge v37.0.0 ('Leave It') 64-bit
  677.       _STATISTICS_WRITING_DATE_UTC-eng: 2019-09-05 15:53:03
  678.       _STATISTICS_TAGS-eng: BPS DURATION NUMBER_OF_FRAMES NUMBER_OF_BYTES
  679.     Stream #0:9(spa): Subtitle: hdmv_pgs_subtitle
  680.     Metadata:
  681.       title           : Spanish
  682.       BPS-eng         : 33344
  683.       DURATION-eng    : 02:46:55.750000000
  684.       NUMBER_OF_FRAMES-eng: 4395
  685.       NUMBER_OF_BYTES-eng: 41746625
  686.       _STATISTICS_WRITING_APP-eng: mkvmerge v37.0.0 ('Leave It') 64-bit
  687.       _STATISTICS_WRITING_DATE_UTC-eng: 2019-09-05 15:53:03
  688.       _STATISTICS_TAGS-eng: BPS DURATION NUMBER_OF_FRAMES NUMBER_OF_BYTES
  689.     Stream #0:10: Video: mjpeg, yuvj420p(pc, bt470bg/unknown/unknown), 1000x1500 [SAR 1:1 DAR 2:3], 90k tbr, 90k tbn, 90k tbc
  690.     Metadata:
  691.       filename        : cover.jpg
  692.       mimetype        : image/jpeg
  693. [11:02:40] scan: decoding previews for title 1
  694. [11:02:40] scan: audio 0x1: dca, rate=48000Hz, bitrate=1 हिंदी (DTS-HD MA) (5.1 ch)
  695. [11:02:41] scan: audio 0x2: ac3, rate=48000Hz, bitrate=224000 English (AC3) (2.0 ch) (Dolby Surround)
  696. [11:02:41] scan: 10 previews, 1920x1080, 24.000 fps, autocrop = 132/132/0/0, aspect 16:9, PAR 1:1
  697. [11:02:41] libhb: scan thread found 1 valid title(s)
  698. [11:02:41] starting job
  699. [11:02:41] decomb filter thread started for segment 1
  700. [11:02:41] decomb filter thread started for segment 3
  701. [11:02:41] decomb filter thread started for segment 2
  702. [11:02:41] decomb check thread started for segment 0
  703. [11:02:41] decomb filter thread started for segment 0
  704. [11:02:41] decomb check thread started for segment 1
  705. [11:02:41] decomb check thread started for segment 3
  706. [11:02:41] mask filter thread started for segment 0
  707. [11:02:41] mask filter thread started for segment 1
  708. [11:02:41] mask filter thread started for segment 2
  709. [11:02:41] mask erode thread started for segment 0
  710. [11:02:41] mask filter thread started for segment 3
  711. [11:02:41] mask erode thread started for segment 1
  712. [11:02:41] mask erode thread started for segment 2
  713. [11:02:41] mask dilate thread started for segment 0
  714. [11:02:41] mask erode thread started for segment 3
  715. [11:02:41] mask dilate thread started for segment 2
  716. [11:02:41] mask dilate thread started for segment 3
  717. [11:02:41] yadif thread started for segment 0
  718. [11:02:41] mask dilate thread started for segment 1
  719. [11:02:41] yadif thread started for segment 1
  720. [11:02:41] yadif thread started for segment 2
  721. [11:02:41] yadif thread started for segment 3
  722. [11:02:41] job configuration:
  723. [11:02:41]  * source
  724. [11:02:41]    + /home/mh/Misc/Remux/3.Idiots.2009.REPACK.1080p.BluRay.REMUX.AVC.DTS-HD.MA.5.1-T00thLe$$.mkv
  725. [11:02:41]    + title 1, chapter(s) 1 to 28
  726. [11:02:41]    + container: matroska,webm
  727. [11:02:41]    + data rate: 28101 kbps
  728. [11:02:41]  * destination
  729. [11:02:41]    + /home/mh/Mult/Encode/3 Idiots 2009 1080p BluRay 10-Bit AC3 5.1 x265 - ElPro.mkv
  730. [11:02:41]    + container: Matroska (libavformat)
  731. [11:02:41]  * video track
  732. [11:02:41]    + decoder: h264
  733. [11:02:41]    + filters
  734. [11:02:41]      + Comb Detect (mode=3:spatial-metric=2:motion-thresh=1:spatial-thresh=1:filter-mode=2:block-thresh=40:block-width=16:block-height=16)
  735. [11:02:41]      + Decomb (mode=39)
  736. [11:02:41]      + Framerate Shaper (mode=1)
  737. [11:02:41]        + frame rate: 24.000 fps -> constant 24.000 fps
  738. [11:02:41]      + Crop and Scale (width=1920:height=816:crop-top=132:crop-bottom=132:crop-left=0:crop-right=0)
  739. [11:02:41]        + source: 1920 * 1080, crop (132/132/0/0): 1920 * 816, scale: 1920 * 816
  740. [11:02:41]    + Output geometry
  741. [11:02:41]      + storage dimensions: 1920 x 816
  742. [11:02:41]      + pixel aspect ratio: 1 : 1
  743. [11:02:41]      + display dimensions: 1920 x 816
  744. [11:02:41]    + encoder: H.265 10-bit (libx265)
  745. [11:02:41]      + preset:  medium
  746. [11:02:41]      + profile: auto
  747. [11:02:41]      + bitrate: 3200 kbps, pass: 1
  748. [11:02:41]      + fast first pass
  749. [11:02:41]      + color profile: 1-1-1
  750. [11:02:41]  * subtitle track 1, English [PGS] (track 0, id 0x3, Picture) -> Passthrough
  751. [11:02:41]  * subtitle track 2, العربية [PGS] (track 1, id 0x4, Picture) -> Passthrough
  752. [11:02:41]  * subtitle track 3, Nederlands [PGS] (track 2, id 0x5, Picture) -> Passthrough
  753. [11:02:41]  * subtitle track 4, Francais [PGS] (track 3, id 0x6, Picture) -> Passthrough
  754. [11:02:41]  * subtitle track 5, Portugues [PGS] (track 4, id 0x7, Picture) -> Passthrough
  755. [11:02:41]  * subtitle track 6, español [PGS] (track 6, id 0x9, Picture) -> Passthrough
  756. [11:02:41]  * audio track 1
  757. [11:02:41]    + decoder: हिंदी (DTS-HD MA) (5.1 ch) (track 1, id 0x1)
  758. [11:02:41]      + samplerate: 48000 Hz
  759. [11:02:41]    + mixdown: 5.1 Channels
  760. [11:02:41]    + dither: triangular
  761. [11:02:41]    + encoder: AC3 (libavcodec)
  762. [11:02:41]      + bitrate: 384 kbps, samplerate: 48000 Hz
  763. [11:02:41]  * audio track 2
  764. [11:02:41]    + decoder: English (AC3) (2.0 ch) (Dolby Surround) (track 2, id 0x2)
  765. [11:02:41]      + bitrate: 224 kbps, samplerate: 48000 Hz
  766. [11:02:41]    + mixdown: Stereo
  767. [11:02:41]    + dither: triangular
  768. [11:02:41]    + encoder: AC3 (libavcodec)
  769. [11:02:41]      + bitrate: 192 kbps, samplerate: 48000 Hz
  770. [11:02:41] decomb check thread started for segment 2
  771. [11:02:41] sync: expecting 246415 video frames
  772. x265 [info]: HEVC encoder version 2.9
  773. x265 [info]: build info [Linux][GCC 7.3.0][64 bit] 10bit
  774. x265 [info]: using cpu capabilities: MMX2 SSE2Fast LZCNT SSSE3 SSE4.2
  775. x265 [info]: Main 10 profile, Level-4 (Main tier)
  776. x265 [info]: Thread pool created using 4 threads
  777. x265 [info]: Slices                              : 1
  778. x265 [info]: frame threads / pool features       : 2 / wpp(13 rows)
  779. x265 [info]: Coding QT: max CU size, min CU size : 64 / 8
  780. x265 [info]: Residual QT: max TU size, max depth : 32 / 1 inter / 1 intra
  781. x265 [info]: ME / range / subpel / merge         : dia / 57 / 2 / 1
  782. x265 [info]: Keyframe min / max / scenecut / bias: 24 / 240 / 40 / 5.00
  783. x265 [info]: Lookahead / bframes / badapt        : 20 / 4 / 2
  784. x265 [info]: b-pyramid / weightp / weightb       : 1 / 1 / 0
  785. x265 [info]: References / ref-limit  cu / depth  : 1 / on / on
  786. x265 [info]: AQ: mode / str / qg-size / cu-tree  : 1 / 1.0 / 32 / 1
  787. x265 [info]: Rate Control / qCompress            : ABR-3200 kbps / 0.60
  788. x265 [info]: tools: rd=2 psy-rd=2.00 early-skip rskip signhide tmvp fast-intra
  789. x265 [info]: tools: strong-intra-smoothing lslices=5 deblock sao stats-write
  790. [11:02:42] sync: first pts video is 0
  791. [11:02:42] sync: "Opening" (1) at frame 1 time 0
  792. [11:02:42] sync: first pts audio 0x1 is 0
  793. [11:02:42] sync: first pts audio 0x2 is 0
  794. [11:02:42] sync: first pts subtitle 0x5 is 0
  795. [11:04:36] sync: "Farhan Fakes Heart Attack" (2) at frame 1619 time 6067500
  796. [11:06:19] sync: first pts subtitle 0x3 is 8763750
  797. [11:06:19] sync: first pts subtitle 0x4 is 8775000
  798. [11:06:19] sync: first pts subtitle 0x6 is 8775000
  799. [11:06:19] sync: first pts subtitle 0x7 is 8775000
  800. [11:06:19] sync: first pts subtitle 0x9 is 8775000
  801. [11:29:31] sync: "Behti Hawa Sa Tha Wo..." (3) at frame 12075 time 45277500
  802. [11:46:27] sync: "Rancho Arrives" (4) at frame 19307 time 72397500
  803. [12:02:49] sync: "Director Addresses Students" (5) at frame 26105 time 97890000
  804. [12:19:12] sync: "Definition of Machine" (6) at frame 33434 time 125373750
  805. [12:40:25] sync: "Give Me Some Sunshine..." (7) at frame 41504 time 155636250
  806. [12:44:55] sync: ""Aal izz Well" Philosophy" (8) at frame 43254 time 162198750
  807. [12:50:26] sync: "Aal Izz Well..." (9) at frame 45340 time 170021250
  808. [13:15:34] sync: "Rancho Confronts Director" (10) at frame 53503 time 200632500
  809. [13:43:33] sync: "Raju's Black and White House" (11) at frame 64179 time 240667500
  810. [14:37:24] sync: "Chatur's Speech" (12) at frame 86289 time 323580000
  811. [14:58:14] sync: "Pia Breaks Up With Suhas" (13) at frame 95701 time 358875000
  812. [15:26:23] sync: "Zoobi Doobi..." (14) at frame 106853 time 400695000
  813. [15:48:33] sync: "Results Are Out" (15) at frame 116334 time 436248750
  814. [16:03:20] sync: "Reaching Shimla" (16) at frame 122483 time 459307500
  815. [16:12:51] sync: "Rancho's Mystery" (17) at frame 127319 time 477442500
  816. [16:37:53] sync: "Director Humilates Farhan and Raju" (18) at frame 139461 time 522975000
  817. [16:53:46] sync: "Drunk Rancho Lands At Director's House" (19) at frame 148283 time 556057500
  818. [17:08:03] sync: "Induction Motor" (20) at frame 155067 time 581497500
  819. [17:20:57] sync: "Jaane Rujne Denge Nahin..." (21) at frame 161354 time 605073750
  820. [17:41:23] sync: "Farhan and Raju Dare to Speak" (22) at frame 170034 time 637623750
  821. [18:13:40] sync: "Drunk Pia Comes to Rancho's Room" (23) at frame 185800 time 696746250
  822. [18:22:27] sync: "Pia's Wedding" (24) at frame 189617 time 711060000
  823. [18:45:22] sync: "Rancho Steals Question Paper" (25) at frame 199170 time 746883750
  824. [19:03:32] sync: "Child Delivery" (26) at frame 207706 time 778893750
  825. [19:49:46] sync: "Reaching Ladakh" (27) at frame 227186 time 851943750
  826. [20:24:51] sync: "End Credits" (28) at frame 242720 time 910196250
  827. [20:30:09] reader: done. 1 scr changes
  828. [20:30:17] work: average encoding speed for job is 7.235806 fps
  829. [20:30:17] comb detect: heavy 788 | light 11950 | uncombed 233677 | total 246415
  830. [20:30:17] decomb: deinterlaced 788 | blended 11950 | unfiltered 233677 | total 246415
  831. [20:30:17] vfr: 246415 frames output, 0 dropped and 0 duped for CFR/PFR
  832. [20:30:17] vfr: lost time: 0 (0 frames)
  833. [20:30:17] vfr: gained time: 0 (0 frames) (0 not accounted for)
  834. [20:30:17] dca-decoder done: 962438 frames, 0 decoder errors
  835. [20:30:17] ac3-decoder done: 320812 frames, 0 decoder errors
  836. [20:30:17] h264-decoder done: 246415 frames, 0 decoder errors
  837. [20:30:17] sync: got 246415 frames, 246415 expected
  838. [20:30:17] sync: framerate min 24.000 fps, max 24.000 fps, avg 24.000 fps
  839. x265 [info]: frame I:   2555, Avg QP:19.86  kb/s: 21886.18
  840. x265 [info]: frame P:  58173, Avg QP:21.57  kb/s: 7982.38
  841. x265 [info]: frame B: 185687, Avg QP:26.38  kb/s: 1470.92
  842. x265 [info]: Weighted P-Frames: Y:3.4% UV:2.7%
  843. x265 [info]: consecutive B-frames: 6.5% 3.2% 9.9% 38.8% 41.6%
  844.  
  845. encoded 246415 frames in 34055.70s (7.24 fps), 3219.81 kb/s, Avg QP:25.18
  846. [20:30:17] starting job
  847. [20:30:17] decomb filter thread started for segment 1
  848. [20:30:17] decomb filter thread started for segment 0
  849. [20:30:17] decomb filter thread started for segment 2
  850. [20:30:17] yadif thread started for segment 0
  851. [20:30:17] decomb filter thread started for segment 3
  852. [20:30:17] yadif thread started for segment 2
  853. [20:30:17] decomb check thread started for segment 0
  854. [20:30:17] mask filter thread started for segment 0
  855. [20:30:17] yadif thread started for segment 1
  856. [20:30:17] decomb check thread started for segment 3
  857. [20:30:17] mask filter thread started for segment 2
  858. [20:30:17] mask filter thread started for segment 1
  859. [20:30:17] mask filter thread started for segment 3
  860. [20:30:17] mask erode thread started for segment 0
  861. [20:30:17] mask erode thread started for segment 1
  862. [20:30:17] mask erode thread started for segment 3
  863. [20:30:17] mask dilate thread started for segment 0
  864. [20:30:17] mask erode thread started for segment 2
  865. [20:30:17] mask dilate thread started for segment 1
  866. [20:30:17] mask dilate thread started for segment 2
  867. [20:30:17] mask dilate thread started for segment 3
  868. [20:30:17] decomb check thread started for segment 1
  869. [20:30:17] yadif thread started for segment 3
  870. [20:30:17] decomb check thread started for segment 2
  871. [20:30:17] job configuration:
  872. [20:30:17]  * source
  873. [20:30:17]    + /home/mh/Misc/Remux/3.Idiots.2009.REPACK.1080p.BluRay.REMUX.AVC.DTS-HD.MA.5.1-T00thLe$$.mkv
  874. [20:30:17]    + title 1, chapter(s) 1 to 28
  875. [20:30:17]    + container: matroska,webm
  876. [20:30:17]    + data rate: 28101 kbps
  877. [20:30:17]  * destination
  878. [20:30:17]    + /home/mh/Mult/Encode/3 Idiots 2009 1080p BluRay 10-Bit AC3 5.1 x265 - ElPro.mkv
  879. [20:30:17]    + container: Matroska (libavformat)
  880. [20:30:17]  * video track
  881. [20:30:17]    + decoder: h264
  882. [20:30:17]    + filters
  883. [20:30:17]      + Comb Detect (mode=3:spatial-metric=2:motion-thresh=1:spatial-thresh=1:filter-mode=2:block-thresh=40:block-width=16:block-height=16)
  884. [20:30:17]      + Decomb (mode=39)
  885. [20:30:17]      + Framerate Shaper (mode=1)
  886. [20:30:17]        + frame rate: 24.000 fps -> constant 24.000 fps
  887. [20:30:17]      + Crop and Scale (width=1920:height=816:crop-top=132:crop-bottom=132:crop-left=0:crop-right=0)
  888. [20:30:17]        + source: 1920 * 1080, crop (132/132/0/0): 1920 * 816, scale: 1920 * 816
  889. [20:30:17]    + Output geometry
  890. [20:30:17]      + storage dimensions: 1920 x 816
  891. [20:30:17]      + pixel aspect ratio: 1 : 1
  892. [20:30:17]      + display dimensions: 1920 x 816
  893. [20:30:17]    + encoder: H.265 10-bit (libx265)
  894. [20:30:17]      + preset:  medium
  895. [20:30:17]      + profile: auto
  896. [20:30:17]      + bitrate: 3200 kbps, pass: 2
  897. [20:30:17]      + color profile: 1-1-1
  898. [20:30:17]  * subtitle track 1, English [PGS] (track 0, id 0x3, Picture) -> Passthrough
  899. [20:30:17]  * subtitle track 2, العربية [PGS] (track 1, id 0x4, Picture) -> Passthrough
  900. [20:30:17]  * subtitle track 3, Nederlands [PGS] (track 2, id 0x5, Picture) -> Passthrough
  901. [20:30:17]  * subtitle track 4, Francais [PGS] (track 3, id 0x6, Picture) -> Passthrough
  902. [20:30:17]  * subtitle track 5, Portugues [PGS] (track 4, id 0x7, Picture) -> Passthrough
  903. [20:30:17]  * subtitle track 6, español [PGS] (track 6, id 0x9, Picture) -> Passthrough
  904. [20:30:17]  * audio track 1
  905. [20:30:17]    + decoder: हिंदी (DTS-HD MA) (5.1 ch) (track 1, id 0x1)
  906. [20:30:17]      + samplerate: 48000 Hz
  907. [20:30:17]    + mixdown: 5.1 Channels
  908. [20:30:17]    + dither: triangular
  909. [20:30:17]    + encoder: AC3 (libavcodec)
  910. [20:30:17]      + bitrate: 384 kbps, samplerate: 48000 Hz
  911. [20:30:17]  * audio track 2
  912. [20:30:17]    + decoder: English (AC3) (2.0 ch) (Dolby Surround) (track 2, id 0x2)
  913. [20:30:17]      + bitrate: 224 kbps, samplerate: 48000 Hz
  914. [20:30:17]    + mixdown: Stereo
  915. [20:30:17]    + dither: triangular
  916. [20:30:17]    + encoder: AC3 (libavcodec)
  917. [20:30:17]      + bitrate: 192 kbps, samplerate: 48000 Hz
  918. [20:30:18] sync: expecting 246415 video frames
  919. x265 [info]: HEVC encoder version 2.9
  920. x265 [info]: build info [Linux][GCC 7.3.0][64 bit] 10bit
  921. x265 [info]: using cpu capabilities: MMX2 SSE2Fast LZCNT SSSE3 SSE4.2
  922. x265 [info]: Main 10 profile, Level-4 (Main tier)
  923. x265 [info]: Thread pool created using 4 threads
  924. x265 [info]: Slices                              : 1
  925. x265 [info]: frame threads / pool features       : 2 / wpp(13 rows)
  926. x265 [info]: Coding QT: max CU size, min CU size : 64 / 8
  927. x265 [info]: Residual QT: max TU size, max depth : 32 / 1 inter / 1 intra
  928. x265 [info]: ME / range / subpel / merge         : hex / 57 / 2 / 2
  929. x265 [info]: Keyframe min / max / scenecut / bias: 24 / 240 / 40 / 5.00
  930. x265 [info]: Lookahead / bframes / badapt        : 20 / 4 / 2
  931. x265 [info]: b-pyramid / weightp / weightb       : 1 / 1 / 0
  932. x265 [info]: References / ref-limit  cu / depth  : 3 / on / on
  933. x265 [info]: AQ: mode / str / qg-size / cu-tree  : 1 / 1.0 / 32 / 1
  934. x265 [info]: Rate Control / qCompress            : ABR-3200 kbps / 0.60
  935. x265 [info]: tools: rd=3 psy-rd=2.00 rskip signhide tmvp strong-intra-smoothing
  936. x265 [info]: tools: lslices=5 deblock sao stats-read
  937. [20:30:25] sync: first pts video is 0
  938. [20:30:25] sync: "Opening" (1) at frame 1 time 0
  939. [20:30:25] sync: first pts audio 0x1 is 0
  940. [20:30:25] sync: first pts audio 0x2 is 0
  941. [20:30:25] sync: first pts subtitle 0x5 is 0
  942. [20:32:05] sync: "Farhan Fakes Heart Attack" (2) at frame 1619 time 6067500
  943. [20:34:20] sync: first pts subtitle 0x3 is 8763750
  944. [20:34:20] sync: first pts subtitle 0x4 is 8775000
  945. [20:34:20] sync: first pts subtitle 0x6 is 8775000
  946. [20:34:20] sync: first pts subtitle 0x7 is 8775000
  947. [20:34:20] sync: first pts subtitle 0x9 is 8775000
  948. [21:05:39] sync: "Behti Hawa Sa Tha Wo..." (3) at frame 12075 time 45277500
  949. [21:30:42] sync: "Rancho Arrives" (4) at frame 19307 time 72397500
  950. [21:51:17] sync: "Director Addresses Students" (5) at frame 26105 time 97890000
  951. [22:15:19] sync: "Definition of Machine" (6) at frame 33434 time 125373750
  952. [22:41:41] sync: "Give Me Some Sunshine..." (7) at frame 41504 time 155636250
  953. [22:47:06] sync: ""Aal izz Well" Philosophy" (8) at frame 43254 time 162198750
  954. [22:53:35] sync: "Aal Izz Well..." (9) at frame 45340 time 170021250
  955. [23:26:54] sync: "Rancho Confronts Director" (10) at frame 53503 time 200632500
  956. [23:59:50] sync: "Raju's Black and White House" (11) at frame 64179 time 240667500
  957. [h264 @ 0x7f16d07b9f80] cabac decode of qscale diff failed at 104 30
  958. [h264 @ 0x7f16d07b9f80] error while decoding MB 104 30, bytestream 8897
  959. [01:14:16] sync: "Chatur's Speech" (12) at frame 86289 time 323580000
  960. [01:45:08] sync: "Pia Breaks Up With Suhas" (13) at frame 95701 time 358875000
  961. [02:21:58] sync: "Zoobi Doobi..." (14) at frame 106853 time 400695000
  962. [02:53:20] sync: "Results Are Out" (15) at frame 116334 time 436248750
  963. [03:13:06] sync: "Reaching Shimla" (16) at frame 122483 time 459307500
  964. [03:27:08] sync: "Rancho's Mystery" (17) at frame 127319 time 477442500
  965. [04:02:24] sync: "Director Humilates Farhan and Raju" (18) at frame 139461 time 522975000
  966. [04:25:00] sync: "Drunk Rancho Lands At Director's House" (19) at frame 148283 time 556057500
  967. [04:42:13] sync: "Induction Motor" (20) at frame 155067 time 581497500
  968. [04:59:24] sync: "Jaane Rujne Denge Nahin..." (21) at frame 161354 time 605073750
  969. [05:27:06] sync: "Farhan and Raju Dare to Speak" (22) at frame 170034 time 637623750
  970. [06:09:35] sync: "Drunk Pia Comes to Rancho's Room" (23) at frame 185800 time 696746250
  971. [06:20:45] sync: "Pia's Wedding" (24) at frame 189617 time 711060000
  972. [06:52:52] sync: "Rancho Steals Question Paper" (25) at frame 199170 time 746883750
  973. [07:16:48] sync: "Child Delivery" (26) at frame 207706 time 778893750
  974. [08:16:52] sync: "Reaching Ladakh" (27) at frame 227186 time 851943750
  975. [09:07:33] sync: "End Credits" (28) at frame 242720 time 910196250
  976. [09:15:41] reader: done. 1 scr changes
  977. [09:15:54] work: average encoding speed for job is 5.365222 fps
  978. [09:15:54] comb detect: heavy 788 | light 11950 | uncombed 233677 | total 246415
  979. [09:15:54] decomb: deinterlaced 788 | blended 11950 | unfiltered 233677 | total 246415
  980. [09:15:54] vfr: 246415 frames output, 0 dropped and 0 duped for CFR/PFR
  981. [09:15:54] vfr: lost time: 0 (0 frames)
  982. [09:15:54] vfr: gained time: 0 (0 frames) (0 not accounted for)
  983. [09:15:54] dca-decoder done: 962438 frames, 0 decoder errors
  984. [09:15:54] ac3-decoder done: 320812 frames, 0 decoder errors
  985. [09:15:54] h264-decoder done: 246415 frames, 0 decoder errors
  986. [09:15:54] sync: got 246415 frames, 246415 expected
  987. [09:15:54] sync: framerate min 24.000 fps, max 24.000 fps, avg 24.000 fps
  988. x265 [info]: frame I:   2555, Avg QP:18.87  kb/s: 25369.98
  989. x265 [info]: frame P:  58173, Avg QP:21.92  kb/s: 7571.71
  990. x265 [info]: frame B: 185687, Avg QP:26.73  kb/s: 1525.63
  991. x265 [info]: Weighted P-Frames: Y:3.1% UV:2.5%
  992. x265 [info]: consecutive B-frames: 6.5% 3.2% 9.9% 38.8% 41.6%
  993.  
  994. encoded 246415 frames in 45930.08s (5.37 fps), 3200.21 kb/s, Avg QP:25.51
  995. [09:15:55] mux: track 0, 246415 frames, 4108171707 bytes, 3200.96 kbps, fifo 2048
  996. [09:15:55] mux: track 1, 320812 frames, 492767232 bytes, 383.95 kbps, fifo 4096
  997. [09:15:55] mux: track 2, 320812 frames, 246383616 bytes, 191.97 kbps, fifo 4096
  998. [09:15:55] mux: track 3, 4266 frames, 42497662 bytes, 33.11 kbps, fifo 32
  999. [09:15:55] mux: track 4, 4274 frames, 26679944 bytes, 20.79 kbps, fifo 32
  1000. [09:15:55] mux: track 5, 4278 frames, 41051143 bytes, 31.99 kbps, fifo 32
  1001. [09:15:55] mux: track 6, 4453 frames, 42326132 bytes, 32.98 kbps, fifo 32
  1002. [09:15:55] mux: track 7, 4401 frames, 41607592 bytes, 32.42 kbps, fifo 32
  1003. [09:15:55] mux: track 8, 4395 frames, 41746625 bytes, 32.53 kbps, fifo 32
  1004. [09:15:55] libhb: work result = 0
RAW Paste Data
We use cookies for various purposes including analytics. By continuing to use Pastebin, you agree to our use of cookies as described in the Cookies Policy. OK, I Understand
Top