SHARE
TWEET

How to Train Your Dragon: The Hidden World BluRay HEVC

dirtyharrys May 30th, 2019 80 Never
Not a member of Pastebin yet? Sign Up, it unlocks many cool features!
  1. General
  2. Unique ID                   : 87861061027019586578428358971587137633 (0x42196CC22AD1022A012BCAB946D59061)
  3. Complete name               : E:\How.to.Train.Your.Dragon.The.Hidden.World.2019.BluRay.1080p.HEVC.x265\How.to.Train.Your.Dragon.The.Hidden.World.2019.BluRay.1080p.HEVC.x265.mkv
  4. Format                      : Matroska
  5. Format version              : Version 4
  6. File size                   : 5.88 GiB
  7. Duration                    : 1 h 44 min
  8. Overall bit rate            : 8 084 kb/s
  9. Movie name                  : How to Train Your Dragon: The Hidden World BluRay / How to Train Your Dragon: The Hidden World BluRay
  10. Encoded date                : UTC 2019-05-28 08:18:06
  11. Writing application         : mkvmerge v30.1.0 ('Forever And More') 32-bit
  12. Writing library             : libebml v1.3.6 + libmatroska v1.4.9
  13. Copyright                   : Movies HDs 2019
  14. ARTIST                      : HarshLearner
  15.  
  16. Video
  17. ID                          : 1
  18. Format                      : HEVC
  19. Format/Info                 : High Efficiency Video Coding
  20. Format profile              : Main 10@L4.1@High
  21. Codec ID                    : V_MPEGH/ISO/HEVC
  22. Duration                    : 1 h 44 min
  23. Bit rate                    : 6 634 kb/s
  24. Width                       : 1 920 pixels
  25. Height                      : 816 pixels
  26. Display aspect ratio        : 2.35:1
  27. Frame rate mode             : Constant
  28. Frame rate                  : 23.976 (24000/1001) FPS
  29. Color space                 : YUV
  30. Chroma subsampling          : 4:2:0
  31. Bit depth                   : 10 bits
  32. Bits/(Pixel*Frame)          : 0.177
  33. Stream size                 : 4.82 GiB (82%)
  34. Title                       : How to Train Your Dragon: The Hidden World
  35. Language                    : English
  36. Default                     : Yes
  37. Forced                      : No
  38. Color range                 : Limited
  39. Color primaries             : BT.709
  40. Transfer characteristics    : BT.709
  41. Matrix coefficients         : BT.709
  42.  
  43. Audio #1
  44. ID                          : 2
  45. Format                      : AC-3
  46. Format/Info                 : Audio Coding 3
  47. Commercial name             : Dolby Digital
  48. Codec ID                    : A_AC3
  49. Duration                    : 1 h 44 min
  50. Bit rate mode               : Constant
  51. Bit rate                    : 640 kb/s
  52. Channel(s)                  : 6 channels
  53. Channel layout              : L R C LFE Ls Rs
  54. Sampling rate               : 48.0 kHz
  55. Frame rate                  : 31.250 FPS (1536 SPF)
  56. Bit depth                   : 16 bits
  57. Compression mode            : Lossy
  58. Stream size                 : 477 MiB (8%)
  59. Language                    : English
  60. Service kind                : Complete Main
  61. Default                     : No
  62. Forced                      : No
  63.  
  64. Audio #2
  65. ID                          : 3
  66. Format                      : E-AC-3
  67. Format/Info                 : Enhanced AC-3
  68. Commercial name             : Dolby Digital Plus
  69. Format profile              : Blu-ray Disc
  70. Codec ID                    : A_EAC3
  71. Duration                    : 1 h 44 min
  72. Bit rate mode               : Constant
  73. Bit rate                    : 768 kb/s
  74. Channel(s)                  : 8 channels
  75. Channel layout              : L R C LFE Ls Rs Lb Rb
  76. Sampling rate               : 48.0 kHz
  77. Frame rate                  : 31.250 FPS (1536 SPF)
  78. Compression mode            : Lossy
  79. Stream size                 : 572 MiB (10%)
  80. Language                    : Spanish
  81. Service kind                : Complete Main
  82. Default                     : Yes
  83. Forced                      : Yes
  84.  
  85. Text #1
  86. ID                          : 4
  87. Format                      : PGS
  88. Muxing mode                 : zlib
  89. Codec ID                    : S_HDMV/PGS
  90. Codec ID/Info               : Picture based subtitle format used on BDs/HD-DVDs
  91. Duration                    : 1 h 32 min
  92. Bit rate                    : 43.0 kb/s
  93. Count of elements           : 3091
  94. Stream size                 : 28.6 MiB (0%)
  95. Language                    : English
  96. Default                     : No
  97. Forced                      : No
  98.  
  99. Text #2
  100. ID                          : 5
  101. Format                      : PGS
  102. Muxing mode                 : zlib
  103. Codec ID                    : S_HDMV/PGS
  104. Codec ID/Info               : Picture based subtitle format used on BDs/HD-DVDs
  105. Duration                    : 1 h 37 min
  106. Bit rate                    : 70.8 kb/s
  107. Count of elements           : 3240
  108. Stream size                 : 49.3 MiB (1%)
  109. Title                       : English SDH
  110. Language                    : English
  111. Default                     : No
  112. Forced                      : No
  113.  
  114. Text #3
  115. ID                          : 6
  116. Format                      : PGS
  117. Muxing mode                 : zlib
  118. Codec ID                    : S_HDMV/PGS
  119. Codec ID/Info               : Picture based subtitle format used on BDs/HD-DVDs
  120. Duration                    : 1 h 42 min
  121. Bit rate                    : 27.0 kb/s
  122. Count of elements           : 2084
  123. Stream size                 : 19.8 MiB (0%)
  124. Title                       : Latin American
  125. Language                    : Spanish
  126. Default                     : No
  127. Forced                      : No
  128.  
  129. Text #4
  130. ID                          : 7
  131. Format                      : UTF-8
  132. Codec ID                    : S_TEXT/UTF8
  133. Codec ID/Info               : UTF-8 Plain Text
  134. Duration                    : 1 h 32 min
  135. Bit rate                    : 47 b/s
  136. Count of elements           : 1100
  137. Stream size                 : 32.2 KiB (0%)
  138. Language                    : English
  139. Default                     : No
  140. Forced                      : No
  141.  
  142. Text #5
  143. ID                          : 8
  144. Format                      : UTF-8
  145. Codec ID                    : S_TEXT/UTF8
  146. Codec ID/Info               : UTF-8 Plain Text
  147. Duration                    : 1 h 32 min
  148. Bit rate                    : 59 b/s
  149. Count of elements           : 1542
  150. Stream size                 : 40.2 KiB (0%)
  151. Title                       : English SDH
  152. Language                    : English
  153. Default                     : No
  154. Forced                      : No
  155.  
  156. Text #6
  157. ID                          : 9
  158. Format                      : UTF-8
  159. Codec ID                    : S_TEXT/UTF8
  160. Codec ID/Info               : UTF-8 Plain Text
  161. Duration                    : 1 h 33 min
  162. Bit rate                    : 51 b/s
  163. Count of elements           : 1107
  164. Stream size                 : 35.3 KiB (0%)
  165. Language                    : Spanish
  166. Default                     : Yes
  167. Forced                      : Yes
  168.  
  169. Menu
  170. 00:00:00.000                : :Chapter 01
  171. 00:05:13.521                : :Chapter 02
  172. 00:10:26.834                : :Chapter 03
  173. 00:14:52.224                : :Chapter 04
  174. 00:20:33.065                : :Chapter 05
  175. 00:24:38.685                : :Chapter 06
  176. 00:28:40.885                : :Chapter 07
  177. 00:31:10.118                : :Chapter 08
  178. 00:37:35.127                : :Chapter 09
  179. 00:44:38.550                : :Chapter 10
  180. 00:47:53.579                : :Chapter 11
  181. 00:53:11.021                : :Chapter 12
  182. 00:57:36.286                : :Chapter 13
  183. 01:01:25.056                : :Chapter 14
  184. 01:08:55.923                : :Chapter 15
  185. 01:14:17.703                : :Chapter 16
  186. 01:19:31.141                : :Chapter 17
  187. 01:23:23.289                : :Chapter 18
  188. 01:28:24.716                : :Chapter 19
  189. 01:33:53.377                : :Chapter 20
RAW Paste Data
We use cookies for various purposes including analytics. By continuing to use Pastebin, you agree to our use of cookies as described in the Cookies Policy. OK, I Understand
 
Top