Advertisement
Henry_Kr

LoSH-2023

Feb 22nd, 2023
143
0
Never
Not a member of Pastebin yet? Sign Up, it unlocks many cool features!
text 4.32 KB | None | 0 0
  1. Video
  2. ID : 1
  3. Format : AVC
  4. Format/Info : Advanced Video Codec
  5. Format profile : High@L4.1
  6. Format settings : CABAC / 4 Ref Frames
  7. Format settings, CABAC : Yes
  8. Format settings, Reference : 4 frames
  9. Codec ID : V_MPEG4/ISO/AVC
  10. Duration : 1 h 23 min
  11. Bit rate : 2 500 kb/s
  12. Width : 1 920 pixels
  13. Height : 1 080 pixels
  14. Display aspect ratio : 16:9
  15. Frame rate mode : Constant
  16. Frame rate : 23.976 (23976/1000) FPS
  17. Color space : YUV
  18. Chroma subsampling : 4:2:0
  19. Bit depth : 8 bits
  20. Scan type : Progressive
  21. Bits/(Pixel*Frame) : 0.050
  22. Stream size : 1.46 GiB (57%)
  23. Title : Legion.of.Super.Heroes.2023.1080p.BluRay.[CartoonNOW]
  24. Writing library : x264 core 152 r2851M ba24899
  25. Encoding settings : cabac=1 / ref=4 / deblock=1:-1:-1 / analyse=0x3:0x113 / me=umh / subme=9 / psy=1 / psy_rd=1.00:0.15 / mixed_ref=1 / me_range=24 / chroma_me=1 / trellis=2 / 8x8dct=1 / cqm=0 / deadzone=21,11 / fast_pskip=1 / chroma_qp_offset=-3 / threads=32 / lookahead_threads=4 / sliced_threads=0 / nr=0 / decimate=1 / interlaced=0 / bluray_compat=0 / constrained_intra=0 / bframes=3 / b_pyramid=2 / b_adapt=2 / b_bias=0 / direct=3 / weightb=1 / open_gop=0 / weightp=2 / keyint=250 / keyint_min=25 / scenecut=40 / intra_refresh=0 / rc_lookahead=50 / rc=2pass / mbtree=1 / bitrate=2500 / ratetol=1.0 / qcomp=0.60 / qpmin=0 / qpmax=69 / qpstep=4 / cplxblur=20.0 / qblur=0.5 / vbv_maxrate=31250 / vbv_bufsize=31250 / nal_hrd=none / filler=0 / ip_ratio=1.40 / aq=3:1.00
  26. Language : English
  27. Default : Yes
  28. Forced : No
  29.  
  30. Audio #1
  31. ID : 2
  32. Format : AC-3
  33. Format/Info : Audio Coding 3
  34. Commercial name : Dolby Digital
  35. Codec ID : A_AC3
  36. Duration : 1 h 23 min
  37. Bit rate mode : Constant
  38. Bit rate : 384 kb/s
  39. Channel(s) : 6 channels
  40. Channel layout : L R C LFE Ls Rs
  41. Sampling rate : 48.0 kHz
  42. Frame rate : 31.250 FPS (1536 SPF)
  43. Compression mode : Lossy
  44. Stream size : 229 MiB (9%)
  45. Title : AC3 5.1
  46. Language : Portuguese
  47. Service kind : Complete Main
  48. Default : Yes
  49. Forced : No
  50.  
  51. Audio #2
  52. ID : 3
  53. Format : DTS
  54. Format/Info : Digital Theater Systems
  55. Codec ID : A_DTS
  56. Duration : 1 h 23 min
  57. Bit rate mode : Constant
  58. Bit rate : 1 509 kb/s
  59. Channel(s) : 6 channels
  60. Channel layout : C L R Ls Rs LFE
  61. Sampling rate : 48.0 kHz
  62. Frame rate : 93.750 FPS (512 SPF)
  63. Bit depth : 24 bits
  64. Compression mode : Lossy
  65. Stream size : 900 MiB (34%)
  66. Title : DTS 5.1
  67. Language : English
  68. Default : No
  69. Forced : No
  70.  
  71. Text
  72. ID : 4
  73. Format : UTF-8
  74. Codec ID : S_TEXT/UTF8
  75. Codec ID/Info : UTF-8 Plain Text
  76. Duration : 1 h 22 min
  77. Bit rate : 52 b/s
  78. Count of elements : 847
  79. Stream size : 31.4 KiB (0%)
  80. Title : Completa
  81. Language : Portuguese
  82. Default : No
  83. Forced : No
  84.  
  85. Menu
  86. 00:00:00.000 : en:Chapter 01
  87. 00:08:10.824 : en:Chapter 02
  88. 00:18:02.748 : en:Chapter 03
  89. 00:27:38.949 : en:Chapter 04
  90. 00:37:32.667 : en:Chapter 05
  91. 00:47:26.677 : en:Chapter 06
  92. 00:57:11.553 : en:Chapter 07
  93. 01:06:45.877 : en:Chapter 08
  94. 01:12:49.907 : en:Chapter 09
  95. 01:19:09.578 : en:Chapter 10
  96. 01:21:40.270 : en:Chapter 11
Advertisement
Add Comment
Please, Sign In to add comment
Advertisement