SHARE
TWEET

The.Thing.1982.Remastered.BluRay.1080p.DTS-HD.MA.5.1.AVC.REMUX-FraMeSToR

a guest Jun 13th, 2019 48 Never
Not a member of Pastebin yet? Sign Up, it unlocks many cool features!
  1. General
  2. Unique ID                                : 9135026435271765561095030159866553526 (0x6DF5793913033298922E015870F64B6)
  3. Complete name                            : The.Thing.1982.Remastered.BluRay.1080p.DTS-HD.MA.5.1.AVC.REMUX-FraMeSToR.mkv
  4. Format                                   : Matroska
  5. Format version                           : Version 4
  6. File size                                : 29.3 GiB
  7. Duration                                 : 1 h 48 min
  8. Overall bit rate mode                    : Variable
  9. Overall bit rate                         : 38.6 Mb/s
  10. Movie name                               : The Thing Remastered
  11. Encoded date                             : UTC 2016-10-19 01:27:33
  12. Writing application                      : mkvmerge v9.5.0 ('Quiet Fire') 64bit
  13. Writing library                          : libebml v1.3.4 + libmatroska v1.4.5
  14.  
  15. Video
  16. ID                                       : 1
  17. Format                                   : AVC
  18. Format/Info                              : Advanced Video Codec
  19. Format profile                           : High@L4.1
  20. Format settings                          : CABAC / 4 Ref Frames
  21. Format settings, CABAC                   : Yes
  22. Format settings, Reference frames        : 4 frames
  23. Codec ID                                 : V_MPEG4/ISO/AVC
  24. Duration                                 : 1 h 48 min
  25. Bit rate mode                            : Constant
  26. Bit rate                                 : 33.2 Mb/s
  27. Nominal bit rate                         : 35.0 Mb/s
  28. Width                                    : 1 920 pixels
  29. Height                                   : 1 080 pixels
  30. Display aspect ratio                     : 16:9
  31. Frame rate mode                          : Constant
  32. Frame rate                               : 23.976 (24000/1001) FPS
  33. Color space                              : YUV
  34. Chroma subsampling                       : 4:2:0
  35. Bit depth                                : 8 bits
  36. Scan type                                : Progressive
  37. Bits/(Pixel*Frame)                       : 0.667
  38. Stream size                              : 25.1 GiB (86%)
  39. Default                                  : Yes
  40. Forced                                   : No
  41.  
  42. Audio #1
  43. ID                                       : 2
  44. Format                                   : DTS XLL
  45. Format/Info                              : Digital Theater Systems
  46. Commercial name                          : DTS-HD Master Audio
  47. Codec ID                                 : A_DTS
  48. Duration                                 : 1 h 48 min
  49. Bit rate mode                            : Variable
  50. Bit rate                                 : 3 860 kb/s
  51. Channel(s)                               : 6 channels
  52. Channel layout                           : C L R Ls Rs LFE
  53. Sampling rate                            : 48.0 kHz
  54. Frame rate                               : 93.750 FPS (512 SPF)
  55. Bit depth                                : 24 bits
  56. Compression mode                         : Lossless
  57. Stream size                              : 2.93 GiB (10%)
  58. Title                                    : DTS-HD MA 5.1
  59. Language                                 : English
  60. Default                                  : Yes
  61. Forced                                   : No
  62.  
  63. Audio #2
  64. ID                                       : 3
  65. Format                                   : AC-3
  66. Format/Info                              : Audio Coding 3
  67. Commercial name                          : Dolby Digital
  68. Codec ID                                 : A_AC3
  69. Duration                                 : 1 h 48 min
  70. Bit rate mode                            : Constant
  71. Bit rate                                 : 192 kb/s
  72. Channel(s)                               : 2 channels
  73. Channel layout                           : L R
  74. Sampling rate                            : 48.0 kHz
  75. Frame rate                               : 31.250 FPS (1536 SPF)
  76. Bit depth                                : 16 bits
  77. Compression mode                         : Lossy
  78. Stream size                              : 149 MiB (0%)
  79. Title                                    : Commentary by Director of Photography Dean Cundey
  80. Language                                 : English
  81. Service kind                             : Complete Main
  82. Default                                  : No
  83. Forced                                   : No
  84.  
  85. Audio #3
  86. ID                                       : 4
  87. Format                                   : AC-3
  88. Format/Info                              : Audio Coding 3
  89. Commercial name                          : Dolby Digital
  90. Codec ID                                 : A_AC3
  91. Duration                                 : 1 h 48 min
  92. Bit rate mode                            : Constant
  93. Bit rate                                 : 192 kb/s
  94. Channel(s)                               : 2 channels
  95. Channel layout                           : L R
  96. Sampling rate                            : 48.0 kHz
  97. Frame rate                               : 31.250 FPS (1536 SPF)
  98. Bit depth                                : 16 bits
  99. Compression mode                         : Lossy
  100. Stream size                              : 149 MiB (0%)
  101. Title                                    : Commentary by Co-producer Stuart Cohen
  102. Language                                 : English
  103. Service kind                             : Complete Main
  104. Default                                  : No
  105. Forced                                   : No
  106.  
  107. Audio #4
  108. ID                                       : 5
  109. Format                                   : AC-3
  110. Format/Info                              : Audio Coding 3
  111. Commercial name                          : Dolby Digital
  112. Codec ID                                 : A_AC3
  113. Duration                                 : 1 h 48 min
  114. Bit rate mode                            : Constant
  115. Bit rate                                 : 192 kb/s
  116. Channel(s)                               : 2 channels
  117. Channel layout                           : L R
  118. Sampling rate                            : 48.0 kHz
  119. Frame rate                               : 31.250 FPS (1536 SPF)
  120. Bit depth                                : 16 bits
  121. Compression mode                         : Lossy
  122. Stream size                              : 149 MiB (0%)
  123. Title                                    : Commentary by Director John Carpenter and Actor Kurt Russell
  124. Language                                 : English
  125. Service kind                             : Complete Main
  126. Default                                  : No
  127. Forced                                   : No
  128.  
  129. Text #1
  130. ID                                       : 6
  131. Format                                   : PGS
  132. Codec ID                                 : S_HDMV/PGS
  133. Codec ID/Info                            : Picture based subtitle format used on BDs/HD-DVDs
  134. Duration                                 : 1 h 39 min
  135. Bit rate                                 : 20.8 kb/s
  136. Count of elements                        : 1391
  137. Stream size                              : 14.9 MiB (0%)
  138. Title                                    : English (SDH)
  139. Language                                 : English
  140. Default                                  : Yes
  141. Forced                                   : No
  142.  
  143. Text #2
  144. ID                                       : 7
  145. Format                                   : PGS
  146. Codec ID                                 : S_HDMV/PGS
  147. Codec ID/Info                            : Picture based subtitle format used on BDs/HD-DVDs
  148. Duration                                 : 1 h 46 min
  149. Bit rate                                 : 12.4 kb/s
  150. Count of elements                        : 1164
  151. Stream size                              : 9.44 MiB (0%)
  152. Title                                    : French
  153. Language                                 : French
  154. Default                                  : No
  155. Forced                                   : No
  156.  
  157. Text #3
  158. ID                                       : 8
  159. Format                                   : PGS
  160. Codec ID                                 : S_HDMV/PGS
  161. Codec ID/Info                            : Picture based subtitle format used on BDs/HD-DVDs
  162. Duration                                 : 1 h 46 min
  163. Bit rate                                 : 17.5 kb/s
  164. Count of elements                        : 1306
  165. Stream size                              : 13.3 MiB (0%)
  166. Title                                    : Italian
  167. Language                                 : Italian
  168. Default                                  : No
  169. Forced                                   : No
  170.  
  171. Text #4
  172. ID                                       : 9
  173. Format                                   : PGS
  174. Codec ID                                 : S_HDMV/PGS
  175. Codec ID/Info                            : Picture based subtitle format used on BDs/HD-DVDs
  176. Duration                                 : 1 h 44 min
  177. Bit rate                                 : 18.5 kb/s
  178. Count of elements                        : 1238
  179. Stream size                              : 13.8 MiB (0%)
  180. Title                                    : German
  181. Language                                 : German
  182. Default                                  : No
  183. Forced                                   : No
  184.  
  185. Text #5
  186. ID                                       : 10
  187. Format                                   : PGS
  188. Codec ID                                 : S_HDMV/PGS
  189. Codec ID/Info                            : Picture based subtitle format used on BDs/HD-DVDs
  190. Duration                                 : 1 h 46 min
  191. Bit rate                                 : 18.4 kb/s
  192. Count of elements                        : 1278
  193. Stream size                              : 14.0 MiB (0%)
  194. Title                                    : Spanish (Castilian)
  195. Language                                 : Spanish
  196. Default                                  : No
  197. Forced                                   : No
  198.  
  199. Text #6
  200. ID                                       : 11
  201. Format                                   : PGS
  202. Codec ID                                 : S_HDMV/PGS
  203. Codec ID/Info                            : Picture based subtitle format used on BDs/HD-DVDs
  204. Duration                                 : 1 h 44 min
  205. Bit rate                                 : 17.2 kb/s
  206. Count of elements                        : 1248
  207. Stream size                              : 12.8 MiB (0%)
  208. Title                                    : Dutch
  209. Language                                 : Dutch
  210. Default                                  : No
  211. Forced                                   : No
  212.  
  213. Text #7
  214. ID                                       : 12
  215. Format                                   : PGS
  216. Codec ID                                 : S_HDMV/PGS
  217. Codec ID/Info                            : Picture based subtitle format used on BDs/HD-DVDs
  218. Duration                                 : 1 h 46 min
  219. Bit rate                                 : 12.4 kb/s
  220. Count of elements                        : 1324
  221. Stream size                              : 9.46 MiB (0%)
  222. Title                                    : Korean
  223. Language                                 : Korean
  224. Default                                  : No
  225. Forced                                   : No
  226.  
  227. Text #8
  228. ID                                       : 13
  229. Format                                   : PGS
  230. Codec ID                                 : S_HDMV/PGS
  231. Codec ID/Info                            : Picture based subtitle format used on BDs/HD-DVDs
  232. Duration                                 : 1 h 46 min
  233. Bit rate                                 : 14.3 kb/s
  234. Count of elements                        : 1176
  235. Stream size                              : 10.9 MiB (0%)
  236. Title                                    : Swedish
  237. Language                                 : Swedish
  238. Default                                  : No
  239. Forced                                   : No
  240.  
  241. Text #9
  242. ID                                       : 14
  243. Format                                   : PGS
  244. Codec ID                                 : S_HDMV/PGS
  245. Codec ID/Info                            : Picture based subtitle format used on BDs/HD-DVDs
  246. Duration                                 : 1 h 46 min
  247. Bit rate                                 : 17.1 kb/s
  248. Count of elements                        : 1252
  249. Stream size                              : 13.0 MiB (0%)
  250. Title                                    : Danish
  251. Language                                 : Danish
  252. Default                                  : No
  253. Forced                                   : No
  254.  
  255. Text #10
  256. ID                                       : 15
  257. Format                                   : PGS
  258. Codec ID                                 : S_HDMV/PGS
  259. Codec ID/Info                            : Picture based subtitle format used on BDs/HD-DVDs
  260. Duration                                 : 1 h 46 min
  261. Bit rate                                 : 15.2 kb/s
  262. Count of elements                        : 1196
  263. Stream size                              : 11.6 MiB (0%)
  264. Title                                    : Finnish
  265. Language                                 : Finnish
  266. Default                                  : No
  267. Forced                                   : No
  268.  
  269. Text #11
  270. ID                                       : 16
  271. Format                                   : PGS
  272. Codec ID                                 : S_HDMV/PGS
  273. Codec ID/Info                            : Picture based subtitle format used on BDs/HD-DVDs
  274. Duration                                 : 1 h 44 min
  275. Bit rate                                 : 14.6 kb/s
  276. Count of elements                        : 1288
  277. Stream size                              : 10.9 MiB (0%)
  278. Title                                    : Norwegian
  279. Language                                 : Norwegian
  280. Default                                  : No
  281. Forced                                   : No
  282.  
  283. Text #12
  284. ID                                       : 17
  285. Format                                   : PGS
  286. Codec ID                                 : S_HDMV/PGS
  287. Codec ID/Info                            : Picture based subtitle format used on BDs/HD-DVDs
  288. Duration                                 : 1 h 46 min
  289. Bit rate                                 : 16.1 kb/s
  290. Count of elements                        : 1224
  291. Stream size                              : 12.3 MiB (0%)
  292. Title                                    : Portuguese (Iberian)
  293. Language                                 : Portuguese
  294. Default                                  : No
  295. Forced                                   : No
  296.  
  297. Text #13
  298. ID                                       : 18
  299. Format                                   : PGS
  300. Codec ID                                 : S_HDMV/PGS
  301. Codec ID/Info                            : Picture based subtitle format used on BDs/HD-DVDs
  302. Duration                                 : 1 h 46 min
  303. Bit rate                                 : 14.7 kb/s
  304. Count of elements                        : 1316
  305. Stream size                              : 11.2 MiB (0%)
  306. Title                                    : Chinese (Mandarin Traditional)
  307. Language                                 : Chinese
  308. Default                                  : No
  309. Forced                                   : No
  310.  
  311. Text #14
  312. ID                                       : 19
  313. Format                                   : PGS
  314. Codec ID                                 : S_HDMV/PGS
  315. Codec ID/Info                            : Picture based subtitle format used on BDs/HD-DVDs
  316. Duration                                 : 1 h 39 min
  317. Bit rate                                 : 10.9 kb/s
  318. Count of elements                        : 1206
  319. Stream size                              : 7.75 MiB (0%)
  320. Title                                    : Japanese
  321. Language                                 : Japanese
  322. Default                                  : No
  323. Forced                                   : No
  324.  
  325. Text #15
  326. ID                                       : 20
  327. Format                                   : PGS
  328. Codec ID                                 : S_HDMV/PGS
  329. Codec ID/Info                            : Picture based subtitle format used on BDs/HD-DVDs
  330. Duration                                 : 1 h 45 min
  331. Bit rate                                 : 79.0 kb/s
  332. Count of elements                        : 3788
  333. Stream size                              : 59.5 MiB (0%)
  334. Title                                    : English (Commentary #3)
  335. Language                                 : English
  336. Default                                  : No
  337. Forced                                   : No
  338.  
  339. Text #16
  340. ID                                       : 21
  341. Format                                   : PGS
  342. Codec ID                                 : S_HDMV/PGS
  343. Codec ID/Info                            : Picture based subtitle format used on BDs/HD-DVDs
  344. Duration                                 : 1 h 45 min
  345. Bit rate                                 : 63.3 kb/s
  346. Count of elements                        : 3786
  347. Stream size                              : 47.7 MiB (0%)
  348. Title                                    : French (Commentary #3)
  349. Language                                 : French
  350. Default                                  : No
  351. Forced                                   : No
  352.  
  353. Text #17
  354. ID                                       : 22
  355. Format                                   : PGS
  356. Codec ID                                 : S_HDMV/PGS
  357. Codec ID/Info                            : Picture based subtitle format used on BDs/HD-DVDs
  358. Duration                                 : 1 h 45 min
  359. Bit rate                                 : 65.3 kb/s
  360. Count of elements                        : 3784
  361. Stream size                              : 49.2 MiB (0%)
  362. Title                                    : Italian (Commentary #3)
  363. Language                                 : Italian
  364. Default                                  : No
  365. Forced                                   : No
  366.  
  367. Text #18
  368. ID                                       : 23
  369. Format                                   : PGS
  370. Codec ID                                 : S_HDMV/PGS
  371. Codec ID/Info                            : Picture based subtitle format used on BDs/HD-DVDs
  372. Duration                                 : 1 h 45 min
  373. Bit rate                                 : 77.2 kb/s
  374. Count of elements                        : 3786
  375. Stream size                              : 58.1 MiB (0%)
  376. Title                                    : German (Commentary #3)
  377. Language                                 : German
  378. Default                                  : No
  379. Forced                                   : No
  380.  
  381. Text #19
  382. ID                                       : 24
  383. Format                                   : PGS
  384. Codec ID                                 : S_HDMV/PGS
  385. Codec ID/Info                            : Picture based subtitle format used on BDs/HD-DVDs
  386. Duration                                 : 1 h 45 min
  387. Bit rate                                 : 67.7 kb/s
  388. Count of elements                        : 3786
  389. Stream size                              : 51.0 MiB (0%)
  390. Title                                    : Spanish (Commentary #3)
  391. Language                                 : Spanish
  392. Default                                  : No
  393. Forced                                   : No
  394.  
  395. Text #20
  396. ID                                       : 25
  397. Format                                   : PGS
  398. Codec ID                                 : S_HDMV/PGS
  399. Codec ID/Info                            : Picture based subtitle format used on BDs/HD-DVDs
  400. Duration                                 : 1 h 45 min
  401. Bit rate                                 : 69.7 kb/s
  402. Count of elements                        : 3786
  403. Stream size                              : 52.5 MiB (0%)
  404. Title                                    : Dutch (Commentary #3)
  405. Language                                 : Dutch
  406. Default                                  : No
  407. Forced                                   : No
  408.  
  409. Text #21
  410. ID                                       : 26
  411. Format                                   : PGS
  412. Codec ID                                 : S_HDMV/PGS
  413. Codec ID/Info                            : Picture based subtitle format used on BDs/HD-DVDs
  414. Duration                                 : 1 h 45 min
  415. Bit rate                                 : 65.8 kb/s
  416. Count of elements                        : 3786
  417. Stream size                              : 49.6 MiB (0%)
  418. Title                                    : Swedish (Commentary #3)
  419. Language                                 : Swedish
  420. Default                                  : No
  421. Forced                                   : No
  422.  
  423. Text #22
  424. ID                                       : 27
  425. Format                                   : PGS
  426. Codec ID                                 : S_HDMV/PGS
  427. Codec ID/Info                            : Picture based subtitle format used on BDs/HD-DVDs
  428. Duration                                 : 1 h 45 min
  429. Bit rate                                 : 67.0 kb/s
  430. Count of elements                        : 3786
  431. Stream size                              : 50.5 MiB (0%)
  432. Title                                    : Danish (Commentary #3)
  433. Language                                 : Danish
  434. Default                                  : No
  435. Forced                                   : No
  436.  
  437. Text #23
  438. ID                                       : 28
  439. Format                                   : PGS
  440. Codec ID                                 : S_HDMV/PGS
  441. Codec ID/Info                            : Picture based subtitle format used on BDs/HD-DVDs
  442. Duration                                 : 1 h 45 min
  443. Bit rate                                 : 67.2 kb/s
  444. Count of elements                        : 3776
  445. Stream size                              : 50.6 MiB (0%)
  446. Title                                    : Finnish (Commentary #3)
  447. Language                                 : Finnish
  448. Default                                  : No
  449. Forced                                   : No
  450.  
  451. Text #24
  452. ID                                       : 29
  453. Format                                   : PGS
  454. Codec ID                                 : S_HDMV/PGS
  455. Codec ID/Info                            : Picture based subtitle format used on BDs/HD-DVDs
  456. Duration                                 : 1 h 45 min
  457. Bit rate                                 : 65.1 kb/s
  458. Count of elements                        : 3784
  459. Stream size                              : 49.1 MiB (0%)
  460. Title                                    : Norwegian (Commentary #3)
  461. Language                                 : Norwegian
  462. Default                                  : No
  463. Forced                                   : No
  464.  
  465. Text #25
  466. ID                                       : 30
  467. Format                                   : PGS
  468. Codec ID                                 : S_HDMV/PGS
  469. Codec ID/Info                            : Picture based subtitle format used on BDs/HD-DVDs
  470. Duration                                 : 1 h 45 min
  471. Bit rate                                 : 73.7 kb/s
  472. Count of elements                        : 3774
  473. Stream size                              : 55.5 MiB (0%)
  474. Title                                    : Portuguese (Commentary #3)
  475. Language                                 : Portuguese
  476. Default                                  : No
  477. Forced                                   : No
  478.  
  479. Text #26
  480. ID                                       : 31
  481. Format                                   : PGS
  482. Codec ID                                 : S_HDMV/PGS
  483. Codec ID/Info                            : Picture based subtitle format used on BDs/HD-DVDs
  484. Duration                                 : 1 h 45 min
  485. Bit rate                                 : 42.5 kb/s
  486. Count of elements                        : 3280
  487. Stream size                              : 32.0 MiB (0%)
  488. Title                                    : Japanese (Commentary #3)
  489. Language                                 : Japanese
  490. Default                                  : No
  491. Forced                                   : No
  492.  
  493. Menu
  494. 00:00:00.000                             : en:Main Titles
  495. 00:02:05.794                             : en:Antarctica, Winter, 1982
  496. 00:04:32.899                             : en:Station 4
  497. 00:07:00.880                             : en:Death in the Snow
  498. 00:10:22.248                             : en:Looking for Answers
  499. 00:14:20.987                             : en:It Begins...
  500. 00:15:47.281                             : en:The Norwegian Camp
  501. 00:22:12.249                             : en:The Man-Thing
  502. 00:24:48.447                             : en:What Appears to Be Normal
  503. 00:26:59.619                             : en:The Beast Within
  504. 00:30:11.812                             : en:The Thing
  505. 00:33:01.481                             : en:Autopsy on an Alien
  506. 00:34:13.720                             : en:The Perfect Imitation
  507. 00:36:01.411                             : en:Something in the Ice
  508. 00:37:20.657                             : en:The Crater
  509. 00:40:03.444                             : en:It's Different Than Us
  510. 00:41:42.627                             : en:The Probability of Infection
  511. 00:45:30.312                             : en:They're Not Dead Yet
  512. 00:46:29.747                             : en:The Thing That Was Bennings
  513. 00:50:16.223                             : en:Blair Goes Berserk
  514. 00:54:42.197                             : en:Matters of Trust
  515. 00:57:34.411                             : en:Bad Blood
  516. 00:59:06.795                             : en:The Man-in-Charge
  517. 01:02:45.388                             : en:Waiting
  518. 01:05:26.382                             : en:Where's Fuchs?
  519. 01:09:49.979                             : en:Macready Cuts Loose
  520. 01:14:21.667                             : en:The Deadly Defibrillation
  521. 01:17:41.700                             : en:A Little Test
  522. 01:18:42.803                             : en:Something in the Blood
  523. 01:25:16.571                             : en:Finishing the Test
  524. 01:26:39.237                             : en:Blair's Little Project
  525. 01:29:17.187                             : en:No Way Out
  526. 01:31:12.969                             : en:Warming Things Up
  527. 01:34:23.701                             : en:Right Down Into the Ice
  528. 01:37:17.333                             : en:The Real Thing
  529. 01:39:12.448                             : en:One Last Thing
  530. 01:42:07.206                             : en:End Titles
RAW Paste Data
We use cookies for various purposes including analytics. By continuing to use Pastebin, you agree to our use of cookies as described in the Cookies Policy. OK, I Understand
 
Top