Guest User

Untitled

a guest
Sep 3rd, 2016
109
Never
Not a member of Pastebin yet? Sign Up, it unlocks many cool features!
  1. Общее
  2. Уникальный идентификатор : 231986415326098654230631908479908131837 (0xAE86F5597D6F5F4BAC13AD8A0E1333FD)
  3. Полное имя : F:\Раздача HD\Charli.2015.BDRip.720p.Video_DrC_Sborka_grab777.mkv
  4. Формат : Matroska
  5. Версия формата : Version 2
  6. Размер файла : 4,54 Гбайт
  7. Продолжительность : 2 ч. 9 м.
  8. Режим общего битрейта : Переменный
  9. Общий поток : 5009 Кбит/сек
  10. Название фильма : Чарли(2015) BDRip 720p_Видеоряд_DrC_Сборка_grab777
  11. Дата кодирования : UTC 2016-09-03 12:55:55
  12. Программа кодирования : mkvmerge v5.8.0 ('No Sleep / Pillow') built on Sep 2 2012 15:37:04
  13. Библиотека кодирования : libebml v1.2.3 + libmatroska v1.3.0
  14.  
  15. Видео
  16. Идентификатор : 1
  17. Формат : AVC
  18. Формат/Информация : Advanced Video Codec
  19. Профиль формата : High@L4.1
  20. Параметр CABAC формата : Да
  21. Параметр ReFrames формата : 5 кадров
  22. Идентификатор кодека : V_MPEG4/ISO/AVC
  23. Продолжительность : 2 ч. 9 м.
  24. Вид битрейта : Переменный
  25. Битрейт : 4174 Кбит/сек
  26. Максимальный битрейт : 40,0 Мбит/сек
  27. Ширина : 1288 пикселей
  28. Высота : 544 пикселя
  29. Соотношение сторон : 2,35:1
  30. Режим частоты кадров : Постоянный
  31. Частота кадров : 24,000 кадра/сек
  32. Цветовое пространство : YUV
  33. Субдискретизация насыщенности : 4:2:0
  34. Битовая глубина : 8 бит
  35. Тип развёртки : Прогрессивная
  36. Бит/(Пиксели*Кадры) : 0.248
  37. Размер потока : 3,70 Гбайт (81%)
  38. Библиотека кодирования : x264 core 146 r2538 121396c
  39. Настройки программы : cabac=1 / ref=6 / deblock=1:-1:-1 / analyse=0x3:0x133 / me=tesa / subme=11 / psy=1 / psy_rd=1.00:0.15 / mixed_ref=1 / me_range=24 / chroma_me=1 / trellis=2 / 8x8dct=1 / cqm=0 / deadzone=21,11 / fast_pskip=0 / chroma_qp_offset=-3 / threads=6 / lookahead_threads=1 / sliced_threads=0 / slices=4 / nr=0 / decimate=1 / interlaced=0 / bluray_compat=1 / constrained_intra=0 / bframes=3 / b_pyramid=1 / b_adapt=2 / b_bias=0 / direct=3 / weightb=1 / open_gop=1 / weightp=1 / keyint=24 / keyint_min=1 / scenecut=40 / intra_refresh=0 / rc_lookahead=24 / rc=2pass / mbtree=1 / bitrate=4174 / ratetol=1.0 / qcomp=0.60 / qpmin=0 / qpmax=69 / qpstep=4 / cplxblur=20.0 / qblur=0.5 / vbv_maxrate=40000 / vbv_bufsize=30000 / nal_hrd=vbr / filler=0 / ip_ratio=1.40 / aq=1:1.00
  40. Default : Да
  41. Forced : Нет
  42.  
  43. Аудио #1
  44. Идентификатор : 2
  45. Формат : AC-3
  46. Формат/Информация : Audio Coding 3
  47. Расширение режима : CM (complete main)
  48. Параметр Endianness формата : Big
  49. Идентификатор кодека : A_AC3
  50. Продолжительность : 2 ч. 9 м.
  51. Вид битрейта : Постоянный
  52. Битрейт : 192 Кбит/сек
  53. Каналы : 2 канала
  54. Расположение каналов : Front: L R
  55. Частота : 48,0 КГц
  56. Битовая глубина : 16 бит
  57. Метод сжатия : С потерями
  58. Размер потока : 178 Мбайт (4%)
  59. Заголовок : MVO (SDI Media)
  60. Язык : Russian
  61. Default : Да
  62. Forced : Нет
  63.  
  64. Аудио #2
  65. Идентификатор : 3
  66. Формат : AC-3
  67. Формат/Информация : Audio Coding 3
  68. Расширение режима : HI (hearing impaired)
  69. Параметр Endianness формата : Big
  70. Идентификатор кодека : A_AC3
  71. Продолжительность : 2 ч. 9 м.
  72. Вид битрейта : Постоянный
  73. Битрейт : 640 Кбит/сек
  74. Каналы : 6 каналов
  75. Расположение каналов : Front: L C R, Side: L R, LFE
  76. Частота : 48,0 КГц
  77. Битовая глубина : 16 бит
  78. Метод сжатия : С потерями
  79. Размер потока : 594 Мбайт (13%)
  80. Заголовок : Малаялам
  81. Язык : Hindi
  82. Default : Нет
  83. Forced : Нет
  84.  
  85. Меню
  86. 00:00:00.000 : en:00:00:00.000
  87. 00:02:59.583 : en:00:02:59.583
  88. 00:08:53.958 : en:00:08:53.958
  89. 00:11:36.083 : en:00:11:36.083
  90. 00:22:20.000 : en:00:22:20.000
  91. 00:24:59.083 : en:00:24:59.083
  92. 00:31:11.917 : en:00:31:11.917
  93. 00:35:50.667 : en:00:35:50.667
  94. 00:46:57.292 : en:00:46:57.292
  95. 00:56:26.208 : en:00:56:26.208
  96. 00:57:54.292 : en:00:57:54.292
  97. 01:10:18.958 : en:01:10:18.958
  98. 01:13:44.292 : en:01:13:44.292
  99. 01:19:02.625 : en:01:19:02.625
  100. 01:20:15.875 : en:01:20:15.875
  101. 01:26:06.792 : en:01:26:06.792
  102. 01:31:42.833 : en:01:31:42.833
  103. 01:34:45.000 : en:01:34:45.000
  104. 01:39:34.542 : en:01:39:34.542
  105. 01:45:06.000 : en:01:45:06.000
  106. 01:49:20.542 : en:01:49:20.542
  107. 01:54:14.875 : en:01:54:14.875
  108. 02:01:35.375 : en:02:01:35.375
  109. 02:07:31.625 : en:02:07:31.625
RAW Paste Data