SHARE
TWEET

The.Wrong.Guy.1997.1080p.BluRay.REMUX.AVC.DTS-HD.MA.2.0-EPSiLON

a guest Jun 12th, 2019 23 Never
Not a member of Pastebin yet? Sign Up, it unlocks many cool features!
  1. General
  2. Complete name                            : 3f8389ca5e2e4bd1b324de09de3c1399(1).mkv
  3. Format                                   : Matroska
  4. Format version                           : Version 4
  5. File size                                : 17.4 GiB
  6. Duration                                 : 1 h 31 min
  7. Overall bit rate mode                    : Variable
  8. Overall bit rate                         : 27.1 Mb/s
  9. Encoded date                             : UTC 2018-12-22 03:56:42
  10. Writing application                      : mkvmerge v29.0.0 ('Like It Or Not') 64-bit
  11. Writing library                          : libebml v1.3.6 + libmatroska v1.4.9
  12.  
  13. Video
  14. ID                                       : 1
  15. Format                                   : AVC
  16. Format/Info                              : Advanced Video Codec
  17. Format profile                           : High@L4.1
  18. Format settings                          : CABAC / 3 Ref Frames
  19. Format settings, CABAC                   : Yes
  20. Format settings, Reference frames        : 3 frames
  21. Format settings, GOP                     : M=3, N=12
  22. Codec ID                                 : V_MPEG4/ISO/AVC
  23. Duration                                 : 1 h 31 min
  24. Bit rate mode                            : Variable
  25. Bit rate                                 : 25.3 Mb/s
  26. Maximum bit rate                         : 32.3 Mb/s
  27. Width                                    : 1 920 pixels
  28. Height                                   : 1 080 pixels
  29. Display aspect ratio                     : 16:9
  30. Frame rate mode                          : Constant
  31. Frame rate                               : 23.976 (24000/1001) FPS
  32. Standard                                 : NTSC
  33. Color space                              : YUV
  34. Chroma subsampling                       : 4:2:0
  35. Bit depth                                : 8 bits
  36. Scan type                                : Progressive
  37. Bits/(Pixel*Frame)                       : 0.509
  38. Stream size                              : 16.3 GiB (94%)
  39. Title                                    : MPEG-4 AVC Video / 25444 kbps / 1080p / 23.976 fps / 16:9 / High Profile 4.1 /
  40. Language                                 : English
  41. Default                                  : Yes
  42. Forced                                   : No
  43. Color range                              : Limited
  44. Color primaries                          : BT.709
  45. Transfer characteristics                 : BT.709
  46. Matrix coefficients                      : BT.709
  47.  
  48. Audio #1
  49. ID                                       : 2
  50. Format                                   : DTS XLL
  51. Format/Info                              : Digital Theater Systems
  52. Commercial name                          : DTS-HD Master Audio
  53. Codec ID                                 : A_DTS
  54. Duration                                 : 1 h 31 min
  55. Bit rate mode                            : Variable
  56. Bit rate                                 : 1 559 kb/s
  57. Channel(s)                               : 2 channels
  58. Channel layout                           : L R
  59. Sampling rate                            : 48.0 kHz
  60. Frame rate                               : 93.750 FPS (512 SPF)
  61. Bit depth                                : 16 bits
  62. Compression mode                         : Lossless
  63. Stream size                              : 1 023 MiB (6%)
  64. Title                                    : DTS-HD Master Audio / 2.0 / 48 kHz / 1559 kbps / 16-bit
  65. Language                                 : English
  66. Default                                  : Yes
  67. Forced                                   : No
  68.  
  69. Audio #2
  70. ID                                       : 3
  71. Format                                   : AC-3
  72. Format/Info                              : Audio Coding 3
  73. Commercial name                          : Dolby Digital
  74. Codec ID                                 : A_AC3
  75. Duration                                 : 1 h 31 min
  76. Bit rate mode                            : Constant
  77. Bit rate                                 : 192 kb/s
  78. Channel(s)                               : 2 channels
  79. Channel layout                           : L R
  80. Sampling rate                            : 48.0 kHz
  81. Frame rate                               : 31.250 FPS (1536 SPF)
  82. Bit depth                                : 16 bits
  83. Compression mode                         : Lossy
  84. Stream size                              : 126 MiB (1%)
  85. Title                                    : Commentary director David Steinberg and co-writers Dave Foley, David Higgins and Jay Kogen
  86. Language                                 : English
  87. Service kind                             : Complete Main
  88. Default                                  : No
  89. Forced                                   : No
  90.  
  91. Menu
  92. 00:00:00.000                             : :Chapter 1
  93. 00:15:32.598                             : :Chapter 2
  94. 00:26:18.911                             : :Chapter 3
  95. 00:38:12.790                             : :Chapter 4
  96. 00:46:53.019                             : :Chapter 5
  97. 01:00:16.613                             : :Chapter 6
  98. 01:10:50.580                             : :Chapter 7
  99. 01:19:41.694                             : :Chapter 8
  100.  
  101. General
  102. Complete name                            : The.Wrong.Guy.1997.1080p.BluRay.REMUX.AVC.DTS-HD.MA.2.0-EPSiLON.mkv
  103. Format                                   : Matroska
  104. Format version                           : Version 4
  105. File size                                : 17.4 GiB
  106. Duration                                 : 1 h 31 min
  107. Overall bit rate mode                    : Variable
  108. Overall bit rate                         : 27.1 Mb/s
  109. Encoded date                             : UTC 2018-12-22 03:56:42
  110. Writing application                      : mkvmerge v29.0.0 ('Like It Or Not') 64-bit
  111. Writing library                          : libebml v1.3.6 + libmatroska v1.4.9
  112.  
  113. Video
  114. ID                                       : 1
  115. Format                                   : AVC
  116. Format/Info                              : Advanced Video Codec
  117. Format profile                           : High@L4.1
  118. Format settings                          : CABAC / 3 Ref Frames
  119. Format settings, CABAC                   : Yes
  120. Format settings, Reference frames        : 3 frames
  121. Format settings, GOP                     : M=3, N=12
  122. Codec ID                                 : V_MPEG4/ISO/AVC
  123. Duration                                 : 1 h 31 min
  124. Bit rate mode                            : Variable
  125. Bit rate                                 : 25.3 Mb/s
  126. Maximum bit rate                         : 32.3 Mb/s
  127. Width                                    : 1 920 pixels
  128. Height                                   : 1 080 pixels
  129. Display aspect ratio                     : 16:9
  130. Frame rate mode                          : Constant
  131. Frame rate                               : 23.976 (24000/1001) FPS
  132. Standard                                 : NTSC
  133. Color space                              : YUV
  134. Chroma subsampling                       : 4:2:0
  135. Bit depth                                : 8 bits
  136. Scan type                                : Progressive
  137. Bits/(Pixel*Frame)                       : 0.509
  138. Stream size                              : 16.3 GiB (94%)
  139. Title                                    : MPEG-4 AVC Video / 25444 kbps / 1080p / 23.976 fps / 16:9 / High Profile 4.1 /
  140. Language                                 : English
  141. Default                                  : Yes
  142. Forced                                   : No
  143. Color range                              : Limited
  144. Color primaries                          : BT.709
  145. Transfer characteristics                 : BT.709
  146. Matrix coefficients                      : BT.709
  147.  
  148. Audio #1
  149. ID                                       : 2
  150. Format                                   : DTS XLL
  151. Format/Info                              : Digital Theater Systems
  152. Commercial name                          : DTS-HD Master Audio
  153. Codec ID                                 : A_DTS
  154. Duration                                 : 1 h 31 min
  155. Bit rate mode                            : Variable
  156. Bit rate                                 : 1 559 kb/s
  157. Channel(s)                               : 2 channels
  158. Channel layout                           : L R
  159. Sampling rate                            : 48.0 kHz
  160. Frame rate                               : 93.750 FPS (512 SPF)
  161. Bit depth                                : 16 bits
  162. Compression mode                         : Lossless
  163. Stream size                              : 1 023 MiB (6%)
  164. Title                                    : DTS-HD Master Audio / 2.0 / 48 kHz / 1559 kbps / 16-bit
  165. Language                                 : English
  166. Default                                  : Yes
  167. Forced                                   : No
  168.  
  169. Audio #2
  170. ID                                       : 3
  171. Format                                   : AC-3
  172. Format/Info                              : Audio Coding 3
  173. Commercial name                          : Dolby Digital
  174. Codec ID                                 : A_AC3
  175. Duration                                 : 1 h 31 min
  176. Bit rate mode                            : Constant
  177. Bit rate                                 : 192 kb/s
  178. Channel(s)                               : 2 channels
  179. Channel layout                           : L R
  180. Sampling rate                            : 48.0 kHz
  181. Frame rate                               : 31.250 FPS (1536 SPF)
  182. Bit depth                                : 16 bits
  183. Compression mode                         : Lossy
  184. Stream size                              : 126 MiB (1%)
  185. Title                                    : Commentary director David Steinberg and co-writers Dave Foley, David Higgins and Jay Kogen
  186. Language                                 : English
  187. Service kind                             : Complete Main
  188. Default                                  : No
  189. Forced                                   : No
  190.  
  191. Menu
  192. 00:00:00.000                             : :Chapter 1
  193. 00:15:32.598                             : :Chapter 2
  194. 00:26:18.911                             : :Chapter 3
  195. 00:38:12.790                             : :Chapter 4
  196. 00:46:53.019                             : :Chapter 5
  197. 01:00:16.613                             : :Chapter 6
  198. 01:10:50.580                             : :Chapter 7
  199. 01:19:41.694                             : :Chapter 8
RAW Paste Data
We use cookies for various purposes including analytics. By continuing to use Pastebin, you agree to our use of cookies as described in the Cookies Policy. OK, I Understand
 
Top