SHARE
TWEET

Brightburn BluRay 1080p

dirtyharrys Jun 24th, 2019 (edited) 87 Never
Not a member of Pastebin yet? Sign Up, it unlocks many cool features!
  1. General
  2. Unique ID                   : 235544007327275262586791341982204588719 (0xB134202D6EEA6404FCBE647E1ED072AF)
  3. Complete name               : E:\Brightburn.2019.1080p.BluRay.x264\Brightburn.2019.1080p.BluRay.x264.mkv
  4. Format                      : Matroska
  5. Format version              : Version 4
  6. File size                   : 2.16 GiB
  7. Duration                    : 1 h 30 min
  8. Overall bit rate            : 3 409 kb/s
  9. Movie name                  : Brightburn BR-RIP / Brightburn BR-RIP
  10. Encoded date                : UTC 2019-08-20 04:01:24
  11. Writing application         : mkvmerge v30.1.0 ('Forever And More') 32-bit
  12. Writing library             : libebml v1.3.6 + libmatroska v1.4.9
  13. Copyright                   : Movies HDs 2019
  14. ARTIST                      : HarshLearner
  15.  
  16. Video
  17. ID                          : 1
  18. Format                      : AVC
  19. Format/Info                 : Advanced Video Codec
  20. Format profile              : High@L4.1
  21. Format settings             : CABAC / 4 Ref Frames
  22. Format settings, CABAC      : Yes
  23. Format settings, ReFrames   : 4 frames
  24. Codec ID                    : V_MPEG4/ISO/AVC
  25. Duration                    : 1 h 30 min
  26. Bit rate                    : 2 500 kb/s
  27. Width                       : 1 920 pixels
  28. Height                      : 808 pixels
  29. Display aspect ratio        : 2.40:1
  30. Frame rate mode             : Constant
  31. Frame rate                  : 23.976 (24000/1001) FPS
  32. Original frame rate         : 23.976 (23976/1000) FPS
  33. Color space                 : YUV
  34. Chroma subsampling          : 4:2:0
  35. Bit depth                   : 8 bits
  36. Scan type                   : Progressive
  37. Bits/(Pixel*Frame)          : 0.067
  38. Stream size                 : 1.58 GiB (73%)
  39. Title                       : Brightburn
  40. Writing library             : x264 core 152 r2851M ba24899
  41. Default                     : Yes
  42. Forced                      : No
  43.  
  44. Audio #1
  45. ID                          : 2
  46. Format                      : AC-3
  47. Format/Info                 : Audio Coding 3
  48. Commercial name             : Dolby Digital
  49. Codec ID                    : A_AC3
  50. Duration                    : 1 h 30 min
  51. Bit rate mode               : Constant
  52. Bit rate                    : 448 kb/s
  53. Channel(s)                  : 6 channels
  54. Channel layout              : L R C LFE Ls Rs
  55. Sampling rate               : 48.0 kHz
  56. Frame rate                  : 31.250 FPS (1536 SPF)
  57. Bit depth                   : 16 bits
  58. Compression mode            : Lossy
  59. Stream size                 : 290 MiB (13%)
  60. Language                    : English
  61. Service kind                : Complete Main
  62. Default                     : No
  63. Forced                      : No
  64.  
  65. Audio #2
  66. ID                          : 3
  67. Format                      : AC-3
  68. Format/Info                 : Audio Coding 3
  69. Commercial name             : Dolby Digital
  70. Codec ID                    : A_AC3
  71. Duration                    : 1 h 30 min
  72. Bit rate mode               : Constant
  73. Bit rate                    : 448 kb/s
  74. Channel(s)                  : 6 channels
  75. Channel layout              : L R C LFE Ls Rs
  76. Sampling rate               : 48.0 kHz
  77. Frame rate                  : 31.250 FPS (1536 SPF)
  78. Bit depth                   : 16 bits
  79. Compression mode            : Lossy
  80. Stream size                 : 290 MiB (13%)
  81. Language                    : Spanish
  82. Service kind                : Complete Main
  83. Default                     : Yes
  84. Forced                      : Yes
  85.  
  86. Text #1
  87. ID                          : 4
  88. Format                      : PGS
  89. Muxing mode                 : zlib
  90. Codec ID                    : S_HDMV/PGS
  91. Codec ID/Info               : Picture based subtitle format used on BDs/HD-DVDs
  92. Duration                    : 1 h 29 min
  93. Bit rate                    : 21.1 kb/s
  94. Count of elements           : 1748
  95. Stream size                 : 13.5 MiB (1%)
  96. Language                    : Spanish
  97. Default                     : No
  98. Forced                      : No
  99.  
  100. Text #2
  101. ID                          : 5
  102. Format                      : UTF-8
  103. Codec ID                    : S_TEXT/UTF8
  104. Codec ID/Info               : UTF-8 Plain Text
  105. Duration                    : 1 h 29 min
  106. Bit rate                    : 53 b/s
  107. Count of elements           : 1351
  108. Stream size                 : 35.2 KiB (0%)
  109. Language                    : English
  110. Default                     : No
  111. Forced                      : No
  112.  
  113. Text #3
  114. ID                          : 6
  115. Format                      : UTF-8
  116. Codec ID                    : S_TEXT/UTF8
  117. Codec ID/Info               : UTF-8 Plain Text
  118. Duration                    : 1 h 24 min
  119. Bit rate                    : 36 b/s
  120. Count of elements           : 873
  121. Stream size                 : 22.8 KiB (0%)
  122. Language                    : Spanish
  123. Default                     : Yes
  124. Forced                      : Yes
  125.  
  126. Text #4
  127. ID                          : 7
  128. Format                      : UTF-8
  129. Codec ID                    : S_TEXT/UTF8
  130. Codec ID/Info               : UTF-8 Plain Text
  131. Duration                    : 1 h 23 min
  132. Bit rate                    : 0 b/s
  133. Count of elements           : 7
  134. Stream size                 : 261 Bytes (0%)
  135. Language                    : Spanish
  136. Default                     : No
  137. Forced                      : No
  138.  
  139. Menu
  140. 00:00:00.000                : :Chapter 01
  141. 00:03:20.700                : :Chapter 02
  142. 00:07:04.633                : :Chapter 03
  143. 00:12:30.792                : :Chapter 04
  144. 00:17:47.066                : :Chapter 05
  145. 00:24:23.170                : :Chapter 06
  146. 00:30:28.910                : :Chapter 07
  147. 00:38:06.784                : :Chapter 08
  148. 00:43:11.672                : :Chapter 09
  149. 00:49:25.796                : :Chapter 10
  150. 00:56:53.535                : :Chapter 11
  151. 01:00:12.359                : :Chapter 12
  152. 01:05:22.127                : :Chapter 13
  153. 01:08:16.092                : :Chapter 14
  154. 01:12:20.586                : :Chapter 15
  155. 01:17:28.894                : :Chapter 16
RAW Paste Data
We use cookies for various purposes including analytics. By continuing to use Pastebin, you agree to our use of cookies as described in the Cookies Policy. OK, I Understand
 
Top