Interfilm

Untitled

Jun 9th, 2014
304
Never
Not a member of Pastebin yet? Sign Up, it unlocks many cool features!
  1. General
  2. Gold.2013.Blu.Ray.1080p.CINEMANIA.mkv
  3. Format : Matroska
  4. Format version : Version 4 / Version 2
  5. File size : 4.72 GiB
  6. Duration : 1h 40mn
  7. Overall bit rate : 6 750 Kbps
  8. Movie name : Release Group CINEMANIA
  9. Encoded date : UTC 2014-06-09 20:43:11
  10. Writing application : mkvmerge v7.0.0 ('Where We Going') 64bit built on Jun 9 2014 15:16:27
  11. Writing library : libebml v1.3.0 + libmatroska v1.4.1
  12.  
  13. Video
  14. ID : 1
  15. Format : AVC
  16. Format/Info : Advanced Video Codec
  17. Format profile : High@L4.1
  18. Format settings, CABAC : Yes
  19. Format settings, ReFrames : 5 frames
  20. Codec ID : V_MPEG4/ISO/AVC
  21. Duration : 1h 40mn
  22. Bit rate : 8 088 Kbps
  23. Width : 1 920 pixels
  24. Height : 800 pixels
  25. Display aspect ratio : 2.40:1
  26. Frame rate mode : Constant
  27. Frame rate : 24.000 fps
  28. Color space : YUV
  29. Chroma subsampling : 4:2:0
  30. Bit depth : 8 bits
  31. Scan type : Progressive
  32. Bits/(Pixel*Frame) : 0.153
  33. Stream size : 3.96 GiB (84%)
  34. Title : Release Group CINEMANIA
  35. Writing library : x264 core 142 r2389 956c8d8
  36. Encoding settings : cabac=1 / ref=5 / deblock=1:0:0 / analyse=0x3:0x113 / me=umh / subme=7 / psy=1 / psy_rd=1.00:0.00 / mixed_ref=1 / me_range=16 / chroma_me=1 / trellis=1 / 8x8dct=1 / cqm=0 / deadzone=21,11 / fast_pskip=0 / chroma_qp_offset=-2 / threads=6 / lookahead_threads=1 / sliced_threads=0 / nr=0 / decimate=1 / interlaced=0 / bluray_compat=0 / constrained_intra=0 / bframes=3 / b_pyramid=2 / b_adapt=1 / b_bias=0 / direct=1 / weightb=1 / open_gop=0 / weightp=2 / keyint=250 / keyint_min=24 / scenecut=40 / intra_refresh=0 / rc_lookahead=40 / rc=crf / mbtree=1 / crf=20.0 / qcomp=0.60 / qpmin=0 / qpmax=69 / qpstep=4 / ip_ratio=1.40 / aq=1:1.00
  37. Default : No
  38. Forced : No
  39.  
  40. Audio #1
  41. ID : 2
  42. Format : AC-3
  43. Format/Info : Audio Coding 3
  44. Mode extension : CM (complete main)
  45. Format settings, Endianness : Big
  46. Codec ID : A_AC3
  47. Duration : 1h 40mn
  48. Bit rate mode : Constant
  49. Bit rate : 192 Kbps
  50. Channel(s) : 2 channels
  51. Channel positions : Front: L R
  52. Sampling rate : 48.0 KHz
  53. Bit depth : 16 bits
  54. Compression mode : Lossy
  55. Stream size : 138 MiB (3%)
  56. Title : Чистый Звук
  57. Language : Russian
  58. Default : Yes
  59. Forced : Yes
  60.  
  61. Audio #2
  62. ID : 3
  63. Format : DTS
  64. Format/Info : Digital Theater Systems
  65. Mode : 16
  66. Format settings, Endianness : Big
  67. Codec ID : A_DTS
  68. Duration : 1h 40mn
  69. Bit rate mode : Constant
  70. Bit rate : 768 Kbps
  71. Channel(s) : 6 channels
  72. Channel positions : Front: L C R, Side: L R, LFE
  73. Sampling rate : 48.0 KHz
  74. Bit depth : 24 bits
  75. Compression mode : Lossy
  76. Delay relative to video : 11ms
  77. Stream size : 550 MiB (11%)
  78. Language : German
  79. Default : No
  80. Forced : No
  81.  
  82. Text
  83. ID : 4
  84. Format : UTF-8
  85. Codec ID : S_TEXT/UTF8
  86. Codec ID/Info : UTF-8 Plain Text
  87. Language : English
  88. Default : No
  89. Forced : No
RAW Paste Data