Kimarite

ffmpeg -i bemeneti.ogg kimeneti.flv

Jan 20th, 2012
52
Never
Not a member of Pastebin yet? Sign Up, it unlocks many cool features!
  1. kim@debiankim:~$ ffmpeg -i /home/kim/Firefox_screenGrab.ogv /home/kim/Firefox_screenGrab.flv
  2. FFmpeg version SVN-r0.5.6-4:0.5.6-3, Copyright (c) 2000-2009 Fabrice Bellard, et al.
  3. configuration: --extra-version=4:0.5.6-3 --prefix=/usr --enable-avfilter --enable-avfilter-lavf --enable-vdpau --enable-bzlib --enable-libdirac --enable-libgsm --enable-libopenjpeg --enable-libschroedinger --enable-libspeex --enable-libtheora --enable-libvorbis --enable-pthreads --enable-zlib --disable-stripping --disable-vhook --enable-runtime-cpudetect --enable-gpl --enable-postproc --enable-swscale --enable-x11grab --enable-libfaad --enable-libdc1394 --enable-shared --disable-static
  4. libavutil 49.15. 0 / 49.15. 0
  5. libavcodec 52.20. 1 / 52.20. 1
  6. libavformat 52.31. 0 / 52.31. 0
  7. libavdevice 52. 1. 0 / 52. 1. 0
  8. libavfilter 0. 4. 0 / 0. 4. 0
  9. libswscale 0. 7. 1 / 0. 7. 1
  10. libpostproc 51. 2. 0 / 51. 2. 0
  11. built on Dec 31 2011 15:16:11, gcc: 4.4.5
  12. Input #0, ogg, from '/home/kim/Firefox_screenGrab.ogv':
  13. Duration: 00:05:47.53, start: 0.000000, bitrate: 574 kb/s
  14. Stream #0.0: Invalid Codec type -1
  15. Stream #0.1: Video: theora, yuv420p, 1024x768, PAR 1:1 DAR 4:3, 15 tbr, 15 tbn, 15 tbc
  16. Output #0, flv, to '/home/kim/Firefox_screenGrab.flv':
  17. Stream #0.0: Video: flv, yuv420p, 1024x768 [PAR 1:1 DAR 4:3], q=2-31, 200 kb/s, 90k tbn, 15 tbc
  18. Stream mapping:
  19. Stream #0.1 -> #0.0
  20. [flv @ 0x88625d0]removing common factors from framerate
  21. Press [q] to stop encoding
  22. frame= 5212 fps= 17 q=24.8 Lsize= 12993kB time=347.47 bitrate= 306.3kbits/s
  23. video:12912kB audio:0kB global headers:0kB muxing overhead 0.632136%
  24. kim@debiankim:~$
RAW Paste Data