AlemaoPS

Untitled

Jul 31st, 2019
121
Never
Not a member of Pastebin yet? Sign Up, it unlocks many cool features!
  1. Video
  2. ID : 1
  3. Format : HEVC
  4. Format/Info : High Efficiency Video Coding
  5. Format profile : Main 10@L5.1@High
  6. HDR format : SMPTE ST 2086, HDR10 compatible
  7. Codec ID : V_MPEGH/ISO/HEVC
  8. Duration : 2 h 2 min
  9. Bit rate : 51.3 Mb/s
  10. Width : 3 840 pixels
  11. Height : 2 160 pixels
  12. Display aspect ratio : 16:9
  13. Frame rate mode : Constant
  14. Frame rate : 23.976 (24000/1001) FPS
  15. Color space : YUV
  16. Chroma subsampling : 4:2:0 (Type 2)
  17. Bit depth : 10 bits
  18. Bits/(Pixel*Frame) : 0.258
  19. Stream size : 43.8 GiB (67%)
  20. Title : Glory.1989.2160p.BluRay.REMUX.HEVC.DTS-HD.MA.TrueHD.7.1.Atmos-FGT
  21. Language : English
  22. Default : No
  23. Forced : No
  24. Color range : Limited
  25. Color primaries : BT.2020
  26. Transfer characteristics : PQ
  27. Matrix coefficients : BT.2020 non-constant
  28. Mastering display color primaries : Display P3
  29. Mastering display luminance : min: 0.0050 cd/m2, max: 4000 cd/m2
  30. Maximum Content Light Level : 7605 cd/m2
  31. Maximum Frame-Average Light Level : 1226 cd/m2
  32.  
  33. Audio #1
  34. ID : 2
  35. Format : MLP FBA 16-ch
  36. Format/Info : Meridian Lossless Packing FBA with 16-channel presentation
  37. Commercial name : Dolby TrueHD with Dolby Atmos
  38. Codec ID : A_TRUEHD
  39. Duration : 2 h 2 min
  40. Bit rate mode : Variable
  41. Bit rate : 3 599 kb/s
  42. Maximum bit rate : 5 712 kb/s
  43. Channel(s) : 8 channels
  44. Channel layout : L R C LFE Ls Rs Lb Rb
  45. Sampling rate : 48.0 kHz
  46. Frame rate : 1 200.000 FPS (40 SPF)
  47. Compression mode : Lossless
  48. Stream size : 3.07 GiB (5%)
  49. Title : Glory.1989.2160p.BluRay.REMUX.HEVC.DTS-HD.MA.TrueHD.7.1.Atmos-FGT
  50. Language : English
  51. Default : Yes
  52. Forced : No
  53. Number of dynamic objects : 11
  54. Bed channel count : 1 channel
  55. Bed channel configuration : LFE
  56.  
  57. Audio #2
  58. ID : 3
  59. Format : DTS XLL
  60. Format/Info : Digital Theater Systems
  61. Commercial name : DTS-HD Master Audio
  62. Codec ID : A_DTS
  63. Duration : 2 h 2 min
  64. Bit rate mode : Variable
  65. Bit rate : 4 114 kb/s
  66. Channel(s) : 8 channels
  67. Channel layout : C L R LFE Lb Rb Lss Rss
  68. Sampling rate : 48.0 kHz
  69. Frame rate : 93.750 FPS (512 SPF)
  70. Bit depth : 24 bits
  71. Compression mode : Lossless
  72. Stream size : 3.51 GiB (5%)
  73. Title : Glory.1989.2160p.BluRay.REMUX.HEVC.DTS-HD.MA.TrueHD.7.1.Atmos-FGT
  74. Language : English
  75. Default : No
  76. Forced : No
  77.  
  78. Audio #3
  79. ID : 4
  80. Format : AC-3
  81. Format/Info : Audio Coding 3
  82. Commercial name : Dolby Digital
  83. Codec ID : A_AC3
  84. Duration : 2 h 2 min
  85. Bit rate mode : Constant
  86. Bit rate : 640 kb/s
  87. Channel(s) : 6 channels
  88. Channel layout : L R C LFE Ls Rs
  89. Sampling rate : 48.0 kHz
  90. Frame rate : 31.250 FPS (1536 SPF)
  91. Bit depth : 16 bits
  92. Compression mode : Lossy
  93. Stream size : 560 MiB (1%)
  94. Title : Glory.1989.2160p.BluRay.REMUX.HEVC.DTS-HD.MA.TrueHD.7.1.Atmos-FGT
  95. Language : English
  96. Service kind : Complete Main
  97. Default : No
  98. Forced : No
  99.  
  100. Audio #4
  101. ID : 5
  102. Format : DTS XLL
  103. Format/Info : Digital Theater Systems
  104. Commercial name : DTS-HD Master Audio
  105. Codec ID : A_DTS
  106. Duration : 2 h 2 min
  107. Bit rate mode : Variable
  108. Bit rate : 1 569 kb/s
  109. Channel(s) : 2 channels
  110. Sampling rate : 48.0 kHz
  111. Frame rate : 93.750 FPS (512 SPF)
  112. Bit depth : 16 bits
  113. Compression mode : Lossless
  114. Stream size : 1.34 GiB (2%)
  115. Title : Glory.1989.2160p.BluRay.REMUX.HEVC.DTS-HD.MA.TrueHD.7.1.Atmos-FGT
  116. Language : English
  117. Default : No
  118. Forced : No
  119.  
  120. Audio #5
  121. ID : 6
  122. Format : AC-3
  123. Format/Info : Audio Coding 3
  124. Commercial name : Dolby Digital
  125. Codec ID : A_AC3
  126. Duration : 2 h 2 min
  127. Bit rate mode : Constant
  128. Bit rate : 640 kb/s
  129. Channel(s) : 6 channels
  130. Channel layout : L R C LFE Ls Rs
  131. Sampling rate : 48.0 kHz
  132. Frame rate : 31.250 FPS (1536 SPF)
  133. Bit depth : 16 bits
  134. Compression mode : Lossy
  135. Stream size : 560 MiB (1%)
  136. Title : Glory.1989.2160p.BluRay.REMUX.HEVC.DTS-HD.MA.TrueHD.7.1.Atmos-FGT
  137. Language : Czech
  138. Service kind : Complete Main
  139. Default : No
  140. Forced : No
  141.  
  142. Audio #6
  143. ID : 7
  144. Format : DTS XLL
  145. Format/Info : Digital Theater Systems
  146. Commercial name : DTS-HD Master Audio
  147. Codec ID : A_DTS
  148. Duration : 2 h 2 min
  149. Bit rate mode : Variable
  150. Bit rate : 2 268 kb/s
  151. Channel(s) : 6 channels
  152. Channel layout : C L R Ls Rs LFE
  153. Sampling rate : 48.0 kHz
  154. Frame rate : 93.750 FPS (512 SPF)
  155. Bit depth : 16 bits
  156. Compression mode : Lossless
  157. Stream size : 1.94 GiB (3%)
  158. Title : Glory.1989.2160p.BluRay.REMUX.HEVC.DTS-HD.MA.TrueHD.7.1.Atmos-FGT
  159. Language : French
  160. Default : No
  161. Forced : No
  162.  
  163. Audio #7
  164. ID : 8
  165. Format : DTS XLL
  166. Format/Info : Digital Theater Systems
  167. Commercial name : DTS-HD Master Audio
  168. Codec ID : A_DTS
  169. Duration : 2 h 2 min
  170. Bit rate mode : Variable
  171. Bit rate : 2 303 kb/s
  172. Channel(s) : 6 channels
  173. Channel layout : C L R Ls Rs LFE
  174. Sampling rate : 48.0 kHz
  175. Frame rate : 93.750 FPS (512 SPF)
  176. Bit depth : 16 bits
  177. Compression mode : Lossless
  178. Stream size : 1.97 GiB (3%)
  179. Title : Glory.1989.2160p.BluRay.REMUX.HEVC.DTS-HD.MA.TrueHD.7.1.Atmos-FGT
  180. Language : German
  181. Default : No
  182. Forced : No
  183.  
  184. Audio #8
  185. ID : 9
  186. Format : AC-3
  187. Format/Info : Audio Coding 3
  188. Commercial name : Dolby Digital
  189. Codec ID : A_AC3
  190. Duration : 2 h 2 min
  191. Bit rate mode : Constant
  192. Bit rate : 640 kb/s
  193. Channel(s) : 6 channels
  194. Channel layout : L R C LFE Ls Rs
  195. Sampling rate : 48.0 kHz
  196. Frame rate : 31.250 FPS (1536 SPF)
  197. Bit depth : 16 bits
  198. Compression mode : Lossy
  199. Stream size : 560 MiB (1%)
  200. Title : Glory.1989.2160p.BluRay.REMUX.HEVC.DTS-HD.MA.TrueHD.7.1.Atmos-FGT
  201. Language : Hungarian
  202. Service kind : Complete Main
  203. Default : No
  204. Forced : No
  205.  
  206. Audio #9
  207. ID : 10
  208. Format : DTS XLL
  209. Format/Info : Digital Theater Systems
  210. Commercial name : DTS-HD Master Audio
  211. Codec ID : A_DTS
  212. Duration : 2 h 2 min
  213. Bit rate mode : Variable
  214. Bit rate : 2 255 kb/s
  215. Channel(s) : 6 channels
  216. Channel layout : C L R Ls Rs LFE
  217. Sampling rate : 48.0 kHz
  218. Frame rate : 93.750 FPS (512 SPF)
  219. Bit depth : 16 bits
  220. Compression mode : Lossless
  221. Stream size : 1.93 GiB (3%)
  222. Title : Glory.1989.2160p.BluRay.REMUX.HEVC.DTS-HD.MA.TrueHD.7.1.Atmos-FGT
  223. Language : Italian
  224. Default : No
  225. Forced : No
  226.  
  227. Audio #10
  228. ID : 11
  229. Format : DTS XLL
  230. Format/Info : Digital Theater Systems
  231. Commercial name : DTS-HD Master Audio
  232. Codec ID : A_DTS
  233. Duration : 2 h 2 min
  234. Bit rate mode : Variable
  235. Bit rate : 2 188 kb/s
  236. Channel(s) : 6 channels
  237. Channel layout : C L R Ls Rs LFE
  238. Sampling rate : 48.0 kHz
  239. Frame rate : 93.750 FPS (512 SPF)
  240. Bit depth : 16 bits
  241. Compression mode : Lossless
  242. Stream size : 1.87 GiB (3%)
  243. Title : Glory.1989.2160p.BluRay.REMUX.HEVC.DTS-HD.MA.TrueHD.7.1.Atmos-FGT
  244. Language : Japanese
  245. Default : No
  246. Forced : No
  247.  
  248. Audio #11
  249. ID : 12
  250. Format : AC-3
  251. Format/Info : Audio Coding 3
  252. Commercial name : Dolby Digital
  253. Codec ID : A_AC3
  254. Duration : 2 h 2 min
  255. Bit rate mode : Constant
  256. Bit rate : 640 kb/s
  257. Channel(s) : 6 channels
  258. Channel layout : L R C LFE Ls Rs
  259. Sampling rate : 48.0 kHz
  260. Frame rate : 31.250 FPS (1536 SPF)
  261. Bit depth : 16 bits
  262. Compression mode : Lossy
  263. Stream size : 560 MiB (1%)
  264. Title : Glory.1989.2160p.BluRay.REMUX.HEVC.DTS-HD.MA.TrueHD.7.1.Atmos-FGT
  265. Language : Polish
  266. Service kind : Complete Main
  267. Default : No
  268. Forced : No
  269.  
  270. Audio #12
  271. ID : 13
  272. Format : AC-3
  273. Format/Info : Audio Coding 3
  274. Commercial name : Dolby Digital
  275. Codec ID : A_AC3
  276. Duration : 2 h 2 min
  277. Bit rate mode : Constant
  278. Bit rate : 640 kb/s
  279. Channel(s) : 6 channels
  280. Channel layout : L R C LFE Ls Rs
  281. Sampling rate : 48.0 kHz
  282. Frame rate : 31.250 FPS (1536 SPF)
  283. Bit depth : 16 bits
  284. Compression mode : Lossy
  285. Stream size : 560 MiB (1%)
  286. Title : Glory.1989.2160p.BluRay.REMUX.HEVC.DTS-HD.MA.TrueHD.7.1.Atmos-FGT
  287. Language : Portuguese
  288. Service kind : Complete Main
  289. Default : No
  290. Forced : No
  291.  
  292. Audio #13
  293. ID : 14
  294. Format : DTS XLL
  295. Format/Info : Digital Theater Systems
  296. Commercial name : DTS-HD Master Audio
  297. Codec ID : A_DTS
  298. Duration : 2 h 2 min
  299. Bit rate mode : Variable
  300. Bit rate : 2 316 kb/s
  301. Channel(s) : 6 channels
  302. Channel layout : C L R Ls Rs LFE
  303. Sampling rate : 48.0 kHz
  304. Frame rate : 93.750 FPS (512 SPF)
  305. Bit depth : 16 bits
  306. Compression mode : Lossless
  307. Stream size : 1.98 GiB (3%)
  308. Title : Glory.1989.2160p.BluRay.REMUX.HEVC.DTS-HD.MA.TrueHD.7.1.Atmos-FGT
  309. Language : Spanish
  310. Default : No
  311. Forced : No
  312.  
  313. Audio #14
  314. ID : 15
  315. Format : AC-3
  316. Format/Info : Audio Coding 3
  317. Commercial name : Dolby Digital
  318. Codec ID : A_AC3
  319. Duration : 2 h 2 min
  320. Bit rate mode : Constant
  321. Bit rate : 640 kb/s
  322. Channel(s) : 6 channels
  323. Channel layout : L R C LFE Ls Rs
  324. Sampling rate : 48.0 kHz
  325. Frame rate : 31.250 FPS (1536 SPF)
  326. Bit depth : 16 bits
  327. Compression mode : Lossy
  328. Stream size : 560 MiB (1%)
  329. Title : Glory.1989.2160p.BluRay.REMUX.HEVC.DTS-HD.MA.TrueHD.7.1.Atmos-FGT
  330. Language : Spanish
  331. Service kind : Complete Main
  332. Default : No
  333. Forced : No
  334.  
  335. Audio #15
  336. ID : 16
  337. Format : AC-3
  338. Format/Info : Audio Coding 3
  339. Commercial name : Dolby Digital
  340. Codec ID : A_AC3
  341. Duration : 2 h 2 min
  342. Bit rate mode : Constant
  343. Bit rate : 640 kb/s
  344. Channel(s) : 6 channels
  345. Channel layout : L R C LFE Ls Rs
  346. Sampling rate : 48.0 kHz
  347. Frame rate : 31.250 FPS (1536 SPF)
  348. Bit depth : 16 bits
  349. Compression mode : Lossy
  350. Stream size : 560 MiB (1%)
  351. Title : Glory.1989.2160p.BluRay.REMUX.HEVC.DTS-HD.MA.TrueHD.7.1.Atmos-FGT
  352. Language : Thai
  353. Service kind : Complete Main
  354. Default : No
  355. Forced : No
  356.  
  357. Text #1
  358. ID : 17
  359. Format : UTF-8
  360. Codec ID : S_TEXT/UTF8
  361. Codec ID/Info : UTF-8 Plain Text
  362. Duration : 1 h 50 min
  363. Bit rate : 49 b/s
  364. Count of elements : 1252
  365. Stream size : 40.4 KiB (0%)
  366. Title : English-SRT
  367. Language : English
  368. Default : Yes
  369. Forced : No
  370.  
  371. Text #2
  372. ID : 18
  373. Format : PGS
  374. Muxing mode : zlib
  375. Codec ID : S_HDMV/PGS
  376. Codec ID/Info : Picture based subtitle format used on BDs/HD-DVDs
  377. Duration : 1 h 55 min
  378. Bit rate : 30.3 kb/s
  379. Count of elements : 2813
  380. Stream size : 25.0 MiB (0%)
  381. Title : English-SDH-PGS
  382. Language : English
  383. Default : No
  384. Forced : No
  385.  
  386. Text #3
  387. ID : 19
  388. Format : PGS
  389. Muxing mode : zlib
  390. Codec ID : S_HDMV/PGS
  391. Codec ID/Info : Picture based subtitle format used on BDs/HD-DVDs
  392. Duration : 1 h 50 min
  393. Bit rate : 27.5 kb/s
  394. Count of elements : 2428
  395. Stream size : 21.7 MiB (0%)
  396. Title : English-PGS
  397. Language : English
  398. Default : No
  399. Forced : No
  400.  
  401. Text #4
  402. ID : 20
  403. Format : PGS
  404. Muxing mode : zlib
  405. Codec ID : S_HDMV/PGS
  406. Codec ID/Info : Picture based subtitle format used on BDs/HD-DVDs
  407. Duration : 1 h 55 min
  408. Bit rate : 30.4 kb/s
  409. Count of elements : 2813
  410. Stream size : 25.0 MiB (0%)
  411. Title : English-SDH-PGS
  412. Language : English
  413. Default : No
  414. Forced : No
  415.  
  416. Text #5
  417. ID : 21
  418. Format : PGS
  419. Muxing mode : zlib
  420. Codec ID : S_HDMV/PGS
  421. Codec ID/Info : Picture based subtitle format used on BDs/HD-DVDs
  422. Duration : 1 h 50 min
  423. Bit rate : 27.5 kb/s
  424. Count of elements : 2430
  425. Stream size : 21.8 MiB (0%)
  426. Title : English-PGS
  427. Language : English
  428. Default : No
  429. Forced : No
  430.  
  431. Text #6
  432. ID : 22
  433. Format : PGS
  434. Muxing mode : zlib
  435. Codec ID : S_HDMV/PGS
  436. Codec ID/Info : Picture based subtitle format used on BDs/HD-DVDs
  437. Duration : 1 h 55 min
  438. Bit rate : 13.0 kb/s
  439. Count of elements : 2254
  440. Stream size : 10.7 MiB (0%)
  441. Title : Arabic-PGS
  442. Language : Arabic
  443. Default : No
  444. Forced : No
  445.  
  446. Text #7
  447. ID : 23
  448. Format : PGS
  449. Muxing mode : zlib
  450. Codec ID : S_HDMV/PGS
  451. Codec ID/Info : Picture based subtitle format used on BDs/HD-DVDs
  452. Duration : 1 h 55 min
  453. Bit rate : 21.0 kb/s
  454. Count of elements : 2248
  455. Stream size : 17.3 MiB (0%)
  456. Title : Chinese-PGS
  457. Language : Chinese
  458. Default : No
  459. Forced : No
  460.  
  461. Text #8
  462. ID : 24
  463. Format : PGS
  464. Muxing mode : zlib
  465. Codec ID : S_HDMV/PGS
  466. Codec ID/Info : Picture based subtitle format used on BDs/HD-DVDs
  467. Duration : 1 h 55 min
  468. Bit rate : 21.4 kb/s
  469. Count of elements : 2246
  470. Stream size : 17.6 MiB (0%)
  471. Title : Czech-PGS
  472. Language : Czech
  473. Default : No
  474. Forced : No
  475.  
  476. Text #9
  477. ID : 25
  478. Format : PGS
  479. Muxing mode : zlib
  480. Codec ID : S_HDMV/PGS
  481. Codec ID/Info : Picture based subtitle format used on BDs/HD-DVDs
  482. Duration : 1 h 55 min
  483. Bit rate : 19.1 kb/s
  484. Count of elements : 1524
  485. Stream size : 15.7 MiB (0%)
  486. Title : Danish-PGS
  487. Language : Danish
  488. Default : No
  489. Forced : No
  490.  
  491. Text #10
  492. ID : 26
  493. Format : PGS
  494. Muxing mode : zlib
  495. Codec ID : S_HDMV/PGS
  496. Codec ID/Info : Picture based subtitle format used on BDs/HD-DVDs
  497. Duration : 1 h 55 min
  498. Bit rate : 18.0 kb/s
  499. Count of elements : 1464
  500. Stream size : 14.8 MiB (0%)
  501. Title : Dutch-PGS
  502. Language : Dutch
  503. Default : No
  504. Forced : No
  505.  
  506. Text #11
  507. ID : 27
  508. Format : PGS
  509. Muxing mode : zlib
  510. Codec ID : S_HDMV/PGS
  511. Codec ID/Info : Picture based subtitle format used on BDs/HD-DVDs
  512. Duration : 1 h 55 min
  513. Bit rate : 27.5 kb/s
  514. Count of elements : 2461
  515. Stream size : 22.6 MiB (0%)
  516. Title : Estonian-PGS
  517. Language : Estonian
  518. Default : No
  519. Forced : No
  520.  
  521. Text #12
  522. ID : 28
  523. Format : PGS
  524. Muxing mode : zlib
  525. Codec ID : S_HDMV/PGS
  526. Codec ID/Info : Picture based subtitle format used on BDs/HD-DVDs
  527. Duration : 1 h 55 min
  528. Bit rate : 19.0 kb/s
  529. Count of elements : 1474
  530. Stream size : 15.6 MiB (0%)
  531. Title : Finnish-PGS
  532. Language : Finnish
  533. Default : No
  534. Forced : No
  535.  
  536. Text #13
  537. ID : 29
  538. Format : PGS
  539. Muxing mode : zlib
  540. Codec ID : S_HDMV/PGS
  541. Codec ID/Info : Picture based subtitle format used on BDs/HD-DVDs
  542. Duration : 2 h 1 min
  543. Bit rate : 21.8 kb/s
  544. Count of elements : 2162
  545. Stream size : 19.0 MiB (0%)
  546. Title : French-PGS
  547. Language : French
  548. Default : No
  549. Forced : No
  550.  
  551. Text #14
  552. ID : 30
  553. Format : PGS
  554. Muxing mode : zlib
  555. Codec ID : S_HDMV/PGS
  556. Codec ID/Info : Picture based subtitle format used on BDs/HD-DVDs
  557. Duration : 2 h 1 min
  558. Bit rate : 612 b/s
  559. Count of elements : 42
  560. Stream size : 546 KiB (0%)
  561. Title : French-FORCED-PGS
  562. Language : French
  563. Default : No
  564. Forced : No
  565.  
  566. Text #15
  567. ID : 31
  568. Format : PGS
  569. Muxing mode : zlib
  570. Codec ID : S_HDMV/PGS
  571. Codec ID/Info : Picture based subtitle format used on BDs/HD-DVDs
  572. Duration : 1 h 55 min
  573. Bit rate : 27.1 kb/s
  574. Count of elements : 2252
  575. Stream size : 22.3 MiB (0%)
  576. Title : German-PGS
  577. Language : German
  578. Default : No
  579. Forced : No
  580.  
  581. Text #16
  582. ID : 32
  583. Format : PGS
  584. Muxing mode : zlib
  585. Codec ID : S_HDMV/PGS
  586. Codec ID/Info : Picture based subtitle format used on BDs/HD-DVDs
  587. Duration : 1 h 55 min
  588. Bit rate : 597 b/s
  589. Count of elements : 38
  590. Stream size : 503 KiB (0%)
  591. Title : German-FORCED-PGS
  592. Language : German
  593. Default : No
  594. Forced : No
  595.  
  596. Text #17
  597. ID : 33
  598. Format : PGS
  599. Muxing mode : zlib
  600. Codec ID : S_HDMV/PGS
  601. Codec ID/Info : Picture based subtitle format used on BDs/HD-DVDs
  602. Duration : 1 h 55 min
  603. Bit rate : 27.1 kb/s
  604. Count of elements : 2463
  605. Stream size : 22.3 MiB (0%)
  606. Title : Greek-PGS
  607. Language : Greek
  608. Default : No
  609. Forced : No
  610.  
  611. Text #18
  612. ID : 34
  613. Format : PGS
  614. Muxing mode : zlib
  615. Codec ID : S_HDMV/PGS
  616. Codec ID/Info : Picture based subtitle format used on BDs/HD-DVDs
  617. Duration : 1 h 55 min
  618. Bit rate : 23.0 kb/s
  619. Count of elements : 2360
  620. Stream size : 18.9 MiB (0%)
  621. Title : Hungarian-PGS
  622. Language : Hungarian
  623. Default : No
  624. Forced : No
  625.  
  626. Text #19
  627. ID : 35
  628. Format : PGS
  629. Muxing mode : zlib
  630. Codec ID : S_HDMV/PGS
  631. Codec ID/Info : Picture based subtitle format used on BDs/HD-DVDs
  632. Duration : 1 h 55 min
  633. Bit rate : 24.3 kb/s
  634. Count of elements : 2210
  635. Stream size : 20.0 MiB (0%)
  636. Title : Italian-PGS
  637. Language : Italian
  638. Default : No
  639. Forced : No
  640.  
  641. Text #20
  642. ID : 36
  643. Format : PGS
  644. Muxing mode : zlib
  645. Codec ID : S_HDMV/PGS
  646. Codec ID/Info : Picture based subtitle format used on BDs/HD-DVDs
  647. Duration : 1 h 55 min
  648. Bit rate : 651 b/s
  649. Count of elements : 40
  650. Stream size : 549 KiB (0%)
  651. Title : Italian-FORCED-PGS
  652. Language : Italian
  653. Default : No
  654. Forced : No
  655.  
  656. Text #21
  657. ID : 37
  658. Format : PGS
  659. Muxing mode : zlib
  660. Codec ID : S_HDMV/PGS
  661. Codec ID/Info : Picture based subtitle format used on BDs/HD-DVDs
  662. Duration : 1 h 55 min
  663. Bit rate : 17.0 kb/s
  664. Count of elements : 1928
  665. Stream size : 14.0 MiB (0%)
  666. Title : Japanese-PGS
  667. Language : Japanese
  668. Default : No
  669. Forced : No
  670.  
  671. Text #22
  672. ID : 38
  673. Format : PGS
  674. Muxing mode : zlib
  675. Codec ID : S_HDMV/PGS
  676. Codec ID/Info : Picture based subtitle format used on BDs/HD-DVDs
  677. Duration : 1 h 56 min
  678. Bit rate : 15.3 kb/s
  679. Count of elements : 2167
  680. Stream size : 12.8 MiB (0%)
  681. Title : Korean-PGS
  682. Language : Korean
  683. Default : No
  684. Forced : No
  685.  
  686. Text #23
  687. ID : 39
  688. Format : PGS
  689. Muxing mode : zlib
  690. Codec ID : S_HDMV/PGS
  691. Codec ID/Info : Picture based subtitle format used on BDs/HD-DVDs
  692. Duration : 1 h 55 min
  693. Bit rate : 25.1 kb/s
  694. Count of elements : 2469
  695. Stream size : 20.7 MiB (0%)
  696. Title : Lithuanian-PGS
  697. Language : Lithuanian
  698. Default : No
  699. Forced : No
  700.  
  701. Text #24
  702. ID : 40
  703. Format : PGS
  704. Muxing mode : zlib
  705. Codec ID : S_HDMV/PGS
  706. Codec ID/Info : Picture based subtitle format used on BDs/HD-DVDs
  707. Duration : 1 h 55 min
  708. Bit rate : 18.6 kb/s
  709. Count of elements : 1624
  710. Stream size : 15.3 MiB (0%)
  711. Title : Norwegian-PGS
  712. Language : Norwegian
  713. Default : No
  714. Forced : No
  715.  
  716. Text #25
  717. ID : 41
  718. Format : PGS
  719. Muxing mode : zlib
  720. Codec ID : S_HDMV/PGS
  721. Codec ID/Info : Picture based subtitle format used on BDs/HD-DVDs
  722. Duration : 1 h 55 min
  723. Bit rate : 20.5 kb/s
  724. Count of elements : 2168
  725. Stream size : 16.9 MiB (0%)
  726. Title : Polish-PGS
  727. Language : Polish
  728. Default : No
  729. Forced : No
  730.  
  731. Text #26
  732. ID : 42
  733. Format : PGS
  734. Muxing mode : zlib
  735. Codec ID : S_HDMV/PGS
  736. Codec ID/Info : Picture based subtitle format used on BDs/HD-DVDs
  737. Duration : 1 h 14 min
  738. Bit rate : 290 b/s
  739. Count of elements : 14
  740. Stream size : 158 KiB (0%)
  741. Title : Polish-FORCED-PGS
  742. Language : Polish
  743. Default : No
  744. Forced : No
  745.  
  746. Text #27
  747. ID : 43
  748. Format : PGS
  749. Muxing mode : zlib
  750. Codec ID : S_HDMV/PGS
  751. Codec ID/Info : Picture based subtitle format used on BDs/HD-DVDs
  752. Duration : 1 h 56 min
  753. Bit rate : 22.5 kb/s
  754. Count of elements : 2287
  755. Stream size : 18.8 MiB (0%)
  756. Title : Portuguese-PGS
  757. Language : Portuguese
  758. Default : No
  759. Forced : No
  760.  
  761. Text #28
  762. ID : 44
  763. Format : PGS
  764. Muxing mode : zlib
  765. Codec ID : S_HDMV/PGS
  766. Codec ID/Info : Picture based subtitle format used on BDs/HD-DVDs
  767. Duration : 2 h 1 min
  768. Bit rate : 26.3 kb/s
  769. Count of elements : 2473
  770. Stream size : 22.9 MiB (0%)
  771. Title : Portuguese-FORCED-PGS
  772. Language : Portuguese
  773. Default : No
  774. Forced : No
  775.  
  776. Text #29
  777. ID : 45
  778. Format : PGS
  779. Muxing mode : zlib
  780. Codec ID : S_HDMV/PGS
  781. Codec ID/Info : Picture based subtitle format used on BDs/HD-DVDs
  782. Duration : 1 h 56 min
  783. Bit rate : 27.2 kb/s
  784. Count of elements : 2467
  785. Stream size : 22.7 MiB (0%)
  786. Title : Romanian-PGS
  787. Language : Romanian
  788. Default : No
  789. Forced : No
  790.  
  791. Text #30
  792. ID : 46
  793. Format : PGS
  794. Muxing mode : zlib
  795. Codec ID : S_HDMV/PGS
  796. Codec ID/Info : Picture based subtitle format used on BDs/HD-DVDs
  797. Duration : 1 h 55 min
  798. Bit rate : 25.9 kb/s
  799. Count of elements : 2274
  800. Stream size : 21.3 MiB (0%)
  801. Title : Russian-PGS
  802. Language : Russian
  803. Default : No
  804. Forced : No
  805.  
  806. Text #31
  807. ID : 47
  808. Format : PGS
  809. Muxing mode : zlib
  810. Codec ID : S_HDMV/PGS
  811. Codec ID/Info : Picture based subtitle format used on BDs/HD-DVDs
  812. Duration : 2 h 1 min
  813. Bit rate : 24.2 kb/s
  814. Count of elements : 2463
  815. Stream size : 21.1 MiB (0%)
  816. Title : Slovak-PGS
  817. Language : Slovak
  818. Default : No
  819. Forced : No
  820.  
  821. Text #32
  822. ID : 48
  823. Format : PGS
  824. Muxing mode : zlib
  825. Codec ID : S_HDMV/PGS
  826. Codec ID/Info : Picture based subtitle format used on BDs/HD-DVDs
  827. Duration : 1 h 55 min
  828. Bit rate : 23.7 kb/s
  829. Count of elements : 2214
  830. Stream size : 19.5 MiB (0%)
  831. Title : Spanish-PGS
  832. Language : Spanish
  833. Default : No
  834. Forced : No
  835.  
  836. Text #33
  837. ID : 49
  838. Format : PGS
  839. Muxing mode : zlib
  840. Codec ID : S_HDMV/PGS
  841. Codec ID/Info : Picture based subtitle format used on BDs/HD-DVDs
  842. Duration : 1 h 55 min
  843. Bit rate : 694 b/s
  844. Count of elements : 42
  845. Stream size : 585 KiB (0%)
  846. Title : Spanish-PGS
  847. Language : Spanish
  848. Default : No
  849. Forced : No
  850.  
  851. Text #34
  852. ID : 50
  853. Format : PGS
  854. Muxing mode : zlib
  855. Codec ID : S_HDMV/PGS
  856. Codec ID/Info : Picture based subtitle format used on BDs/HD-DVDs
  857. Duration : 1 h 55 min
  858. Bit rate : 18.2 kb/s
  859. Count of elements : 1476
  860. Stream size : 14.9 MiB (0%)
  861. Title : Swedish-PGS
  862. Language : Swedish
  863. Default : No
  864. Forced : No
  865.  
  866. Text #35
  867. ID : 51
  868. Format : PGS
  869. Muxing mode : zlib
  870. Codec ID : S_HDMV/PGS
  871. Codec ID/Info : Picture based subtitle format used on BDs/HD-DVDs
  872. Duration : 1 h 55 min
  873. Bit rate : 21.5 kb/s
  874. Count of elements : 2319
  875. Stream size : 17.7 MiB (0%)
  876. Title : Thai-PGS
  877. Language : Thai
  878. Default : No
  879. Forced : No
  880.  
  881. Text #36
  882. ID : 52
  883. Format : PGS
  884. Muxing mode : zlib
  885. Codec ID : S_HDMV/PGS
  886. Codec ID/Info : Picture based subtitle format used on BDs/HD-DVDs
  887. Duration : 1 h 55 min
  888. Bit rate : 593 b/s
  889. Count of elements : 48
  890. Stream size : 500 KiB (0%)
  891. Title : Thai-FORCED-PGS
  892. Language : Thai
  893. Default : No
  894. Forced : No
  895.  
  896. Text #37
  897. ID : 53
  898. Format : PGS
  899. Muxing mode : zlib
  900. Codec ID : S_HDMV/PGS
  901. Codec ID/Info : Picture based subtitle format used on BDs/HD-DVDs
  902. Duration : 1 h 55 min
  903. Bit rate : 24.3 kb/s
  904. Count of elements : 2216
  905. Stream size : 20.0 MiB (0%)
  906. Title : Turkish-PGS
  907. Language : Turkish
  908. Default : No
  909. Forced : No
  910.  
  911. Text #38
  912. ID : 54
  913. Format : PGS
  914. Muxing mode : zlib
  915. Codec ID : S_HDMV/PGS
  916. Codec ID/Info : Picture based subtitle format used on BDs/HD-DVDs
  917. Duration : 1 h 27 min
  918. Bit rate : 781 b/s
  919. Count of elements : 52
  920. Stream size : 499 KiB (0%)
  921. Title : Japanese-FORCED-PGS
  922. Language : Japanese
  923. Default : No
  924. Forced : No
RAW Paste Data

Adblocker detected! Please consider disabling it...

We've detected AdBlock Plus or some other adblocking software preventing Pastebin.com from fully loading.

We don't have any obnoxious sound, or popup ads, we actively block these annoying types of ads!

Please add Pastebin.com to your ad blocker whitelist or disable your adblocking software.

×