SHARE
TWEET

Untitled

a guest Oct 22nd, 2019 95 Never
Not a member of Pastebin yet? Sign Up, it unlocks many cool features!
  1. General
  2. Unique ID                                : 248861331850141661427436141002912879765 (0xBB38F2F848F279BAAD8D789D3286D495)
  3. Complete name                            : The.Angry.Birds.Movie.2.2019.1080p.WEB-DL.AC3.H264-CMRG
  4. Format                                   : Matroska
  5. Format version                           : Version 4
  6. File size                                : 4.86 GiB
  7. Duration                                 : 1 h 31 min
  8. Overall bit rate                         : 7 607 kb/s
  9. Movie name                               : CMRG
  10. Encoded date                             : UTC 2019-10-22 19:42:36
  11. Writing application                      : mkvmerge v11.0.0 ('Alive') 64bit
  12. Writing library                          : libebml v1.3.4 + libmatroska v1.4.5
  13.  
  14. Video
  15. ID                                       : 1
  16. Format                                   : AVC
  17. Format/Info                              : Advanced Video Codec
  18. Format profile                           : High@L4
  19. Format settings                          : CABAC / 2 Ref Frames
  20. Format settings, CABAC                   : Yes
  21. Format settings, Reference frames        : 2 frames
  22. Codec ID                                 : V_MPEG4/ISO/AVC
  23. Duration                                 : 1 h 31 min
  24. Bit rate                                 : 7 221 kb/s
  25. Width                                    : 1 920 pixels
  26. Height                                   : 1 080 pixels
  27. Display aspect ratio                     : 16:9
  28. Frame rate mode                          : Constant
  29. Frame rate                               : 23.976 (24000/1001) FPS
  30. Color space                              : YUV
  31. Chroma subsampling                       : 4:2:0
  32. Bit depth                                : 8 bits
  33. Scan type                                : Progressive
  34. Bits/(Pixel*Frame)                       : 0.145
  35. Stream size                              : 4.62 GiB (95%)
  36. Writing library                          : x264 core 155 r2901 7d0ff22
  37. Default                                  : Yes
  38. Forced                                   : No
  39. Color range                              : Limited
  40. Color primaries                          : BT.709
  41. Transfer characteristics                 : BT.709
  42. Matrix coefficients                      : BT.709
  43.  
  44. Audio
  45. ID                                       : 2
  46. Format                                   : AC-3
  47. Format/Info                              : Audio Coding 3
  48. Commercial name                          : Dolby Digital
  49. Codec ID                                 : A_AC3
  50. Duration                                 : 1 h 31 min
  51. Bit rate mode                            : Constant
  52. Bit rate                                 : 384 kb/s
  53. Channel(s)                               : 2 channels
  54. Channel layout                           : L R
  55. Sampling rate                            : 48.0 kHz
  56. Frame rate                               : 31.250 FPS (1536 SPF)
  57. Compression mode                         : Lossy
  58. Delay relative to video                  : 1 s 0 ms
  59. Stream size                              : 251 MiB (5%)
  60. Language                                 : English
  61. Service kind                             : Complete Main
  62. Default                                  : Yes
  63. Forced                                   : No
RAW Paste Data
We use cookies for various purposes including analytics. By continuing to use Pastebin, you agree to our use of cookies as described in the Cookies Policy. OK, I Understand
Not a member of Pastebin yet?
Sign Up, it unlocks many cool features!
 
Top