SHARE
TWEET

Untitled

a guest Oct 20th, 2019 90 Never
Not a member of Pastebin yet? Sign Up, it unlocks many cool features!
  1. General
  2. Unique ID                                : 210755794461904131173836280946494792905 (0x9E8E16ECCBF1DB5CEC56EBB6E6B3E4C9)
  3. Complete name                            : The.Rookie.S02E04.720p.HDTV.x264-KILLERS
  4. Format                                   : Matroska
  5. Format version                           : Version 4
  6. File size                                : 977 MiB
  7. Duration                                 : 41 min 51 s
  8. Overall bit rate                         : 3 264 kb/s
  9. Encoded date                             : UTC 2019-10-21 00:54:31
  10. Writing application                      : mkvmerge v8.8.0 ('Wind at my back') 64bit
  11. Writing library                          : libebml v1.3.3 + libmatroska v1.4.4
  12.  
  13. Video
  14. ID                                       : 1
  15. Format                                   : AVC
  16. Format/Info                              : Advanced Video Codec
  17. Format profile                           : High@L4.1
  18. Format settings                          : CABAC / 5 Ref Frames
  19. Format settings, CABAC                   : Yes
  20. Format settings, Reference frames        : 5 frames
  21. Codec ID                                 : V_MPEG4/ISO/AVC
  22. Duration                                 : 41 min 51 s
  23. Bit rate                                 : 2 878 kb/s
  24. Width                                    : 1 280 pixels
  25. Height                                   : 716 pixels
  26. Display aspect ratio                     : 16:9
  27. Frame rate mode                          : Constant
  28. Frame rate                               : 23.976 (24000/1001) FPS
  29. Color space                              : YUV
  30. Chroma subsampling                       : 4:2:0
  31. Bit depth                                : 8 bits
  32. Scan type                                : Progressive
  33. Bits/(Pixel*Frame)                       : 0.131
  34. Stream size                              : 862 MiB (88%)
  35. Writing library                          : x264 core 157 r2969 d4099dd
  36. Encoding settings                        : cabac=1 / ref=5 / deblock=1:0:0 / analyse=0x3:0x113 / me=hex / subme=8 / psy=1 / psy_rd=1.00:0.00 / mixed_ref=1 / me_range=16 / chroma_me=1 / trellis=2 / 8x8dct=1 / cqm=0 / deadzone=21,11 / fast_pskip=1 / chroma_qp_offset=-2 / threads=22 / lookahead_threads=3 / sliced_threads=0 / nr=0 / decimate=1 / interlaced=0 / bluray_compat=0 / constrained_intra=0 / bframes=3 / b_pyramid=2 / b_adapt=1 / b_bias=0 / direct=3 / weightb=1 / open_gop=0 / weightp=2 / keyint=250 / keyint_min=23 / scenecut=40 / intra_refresh=0 / rc_lookahead=50 / rc=crf / mbtree=1 / crf=18.0 / qcomp=0.60 / qpmin=0 / qpmax=69 / qpstep=4 / ip_ratio=1.40 / aq=1:1.00
  37. Default                                  : Yes
  38. Forced                                   : No
  39. Color range                              : Limited
  40. Matrix coefficients                      : BT.709
  41.  
  42. Audio
  43. ID                                       : 2
  44. Format                                   : AC-3
  45. Format/Info                              : Audio Coding 3
  46. Commercial name                          : Dolby Digital
  47. Codec ID                                 : A_AC3
  48. Duration                                 : 41 min 51 s
  49. Bit rate mode                            : Constant
  50. Bit rate                                 : 384 kb/s
  51. Channel(s)                               : 6 channels
  52. Channel layout                           : L R C LFE Ls Rs
  53. Sampling rate                            : 48.0 kHz
  54. Frame rate                               : 31.250 FPS (1536 SPF)
  55. Bit depth                                : 16 bits
  56. Compression mode                         : Lossy
  57. Stream size                              : 115 MiB (12%)
  58. Service kind                             : Complete Main
  59. Default                                  : Yes
  60. Forced                                   : No
RAW Paste Data
We use cookies for various purposes including analytics. By continuing to use Pastebin, you agree to our use of cookies as described in the Cookies Policy. OK, I Understand
Not a member of Pastebin yet?
Sign Up, it unlocks many cool features!
 
Top