SHARE
TWEET

The Umbrella Academy: Season 1 1080p WEB-DL

dirtyharrys Jun 13th, 2019 120 Never
Not a member of Pastebin yet? Sign Up, it unlocks many cool features!
  1. General
  2. Unique ID                   : 34111159649431833348400046916885613873 (0x19A99204778F25090F858A0C10050D31)
  3. Complete name               : E:\The.Umbrella.Academy.S01\TUA-S01E01.mkv
  4. Format                      : Matroska
  5. Format version              : Version 4
  6. File size                   : 1.74 GiB
  7. Duration                    : 59 min 18 s
  8. Overall bit rate mode       : Variable
  9. Overall bit rate            : 4 193 kb/s
  10. Movie name                  : The Umbrella Academy S01E01 / The Umbrella Academy: Season One
  11. Description                 : Episode 01: "We Only See Each Other at Weddings and Funerals"
  12. Encoded date                : UTC 2019-06-07 08:23:04
  13. Writing application         : mkvmerge v30.1.0 ('Forever And More') 32-bit
  14. Writing library             : libebml v1.3.6 + libmatroska v1.4.9
  15. Copyright                   : Movies HDs 2019
  16. ARTIST                      : HarshLearner
  17.  
  18. Video
  19. ID                          : 1
  20. Format                      : AVC
  21. Format/Info                 : Advanced Video Codec
  22. Format profile              : High@L4.1
  23. Format settings             : CABAC / 5 Ref Frames
  24. Format settings, CABAC      : Yes
  25. Format settings, ReFrames   : 5 frames
  26. Codec ID                    : V_MPEG4/ISO/AVC
  27. Duration                    : 59 min 17 s
  28. Bit rate mode               : Variable
  29. Bit rate                    : 3 359 kb/s
  30. Maximum bit rate            : 24.0 Mb/s
  31. Width                       : 1 920 pixels
  32. Height                      : 960 pixels
  33. Display aspect ratio        : 2.000
  34. Frame rate mode             : Constant
  35. Frame rate                  : 23.976 (24000/1001) FPS
  36. Color space                 : YUV
  37. Chroma subsampling          : 4:2:0
  38. Bit depth                   : 8 bits
  39. Scan type                   : Progressive
  40. Bits/(Pixel*Frame)          : 0.076
  41. Stream size                 : 1.39 GiB (80%)
  42. Title                       : S01E01: We Only See Each Other at Weddings and Funerals
  43. Writing library             : x264 core 157 r2935
  44. Encoding settings           : cabac=1 / ref=6 / deblock=1:0:0 / analyse=0x3:0x133 / me=umh / subme=8 / psy=1 / psy_rd=1.00:0.00 / mixed_ref=1 / me_range=16 / chroma_me=1 / trellis=0 / 8x8dct=1 / cqm=0 / deadzone=21,11 / fast_pskip=0 / chroma_qp_offset=-2 / threads=30 / lookahead_threads=5 / sliced_threads=0 / nr=0 / decimate=1 / interlaced=0 / bluray_compat=1 / constrained_intra=0 / bframes=3 / b_pyramid=1 / b_adapt=2 / b_bias=0 / direct=3 / weightb=1 / open_gop=0 / weightp=1 / keyint=250 / keyint_min=1 / scenecut=40 / intra_refresh=0 / rc_lookahead=50 / rc=2pass / mbtree=1 / bitrate=3359 / ratetol=1.0 / qcomp=0.60 / qpmin=10 / qpmax=51 / qpstep=4 / cplxblur=20.0 / qblur=0.5 / vbv_maxrate=24000 / vbv_bufsize=24000 / nal_hrd=vbr / filler=0 / frame-packing=0 / ip_ratio=1.40 / aq=1:1.00
  45. Default                     : Yes
  46. Forced                      : No
  47.  
  48. Audio #1
  49. ID                          : 2
  50. Format                      : E-AC-3
  51. Format/Info                 : Enhanced AC-3
  52. Commercial name             : Dolby Digital Plus
  53. Codec ID                    : A_EAC3
  54. Duration                    : 59 min 18 s
  55. Bit rate mode               : Constant
  56. Bit rate                    : 640 kb/s
  57. Channel(s)                  : 6 channels
  58. Channel layout              : L R C LFE Ls Rs
  59. Sampling rate               : 48.0 kHz
  60. Frame rate                  : 31.250 FPS (1536 SPF)
  61. Compression mode            : Lossy
  62. Stream size                 : 271 MiB (15%)
  63. Language                    : English
  64. Service kind                : Complete Main
  65. Default                     : No
  66. Forced                      : No
  67.  
  68. Audio #2
  69. ID                          : 3
  70. Format                      : E-AC-3
  71. Format/Info                 : Enhanced AC-3
  72. Commercial name             : Dolby Digital Plus
  73. Codec ID                    : A_EAC3
  74. Duration                    : 59 min 18 s
  75. Bit rate mode               : Constant
  76. Bit rate                    : 192 kb/s
  77. Channel(s)                  : 6 channels
  78. Channel layout              : L R C LFE Ls Rs
  79. Sampling rate               : 48.0 kHz
  80. Frame rate                  : 31.250 FPS (1536 SPF)
  81. Compression mode            : Lossy
  82. Stream size                 : 81.4 MiB (5%)
  83. Language                    : Spanish
  84. Service kind                : Complete Main
  85. Default                     : Yes
  86. Forced                      : Yes
  87.  
  88. Text #1
  89. ID                          : 4
  90. Format                      : UTF-8
  91. Codec ID                    : S_TEXT/UTF8
  92. Codec ID/Info               : UTF-8 Plain Text
  93. Duration                    : 57 min 4 s
  94. Bit rate                    : 57 b/s
  95. Count of elements           : 774
  96. Stream size                 : 24.2 KiB (0%)
  97. Language                    : English
  98. Default                     : No
  99. Forced                      : No
  100.  
  101. Text #2
  102. ID                          : 5
  103. Format                      : UTF-8
  104. Codec ID                    : S_TEXT/UTF8
  105. Codec ID/Info               : UTF-8 Plain Text
  106. Duration                    : 58 min 3 s
  107. Bit rate                    : 42 b/s
  108. Count of elements           : 548
  109. Stream size                 : 18.0 KiB (0%)
  110. Language                    : Spanish
  111. Default                     : Yes
  112. Forced                      : Yes
  113.  
  114. Text #3
  115. ID                          : 6
  116. Format                      : UTF-8
  117. Codec ID                    : S_TEXT/UTF8
  118. Codec ID/Info               : UTF-8 Plain Text
  119. Duration                    : 57 min 18 s
  120. Bit rate                    : 39 b/s
  121. Count of elements           : 546
  122. Stream size                 : 16.4 KiB (0%)
  123. Language                    : French
  124. Default                     : No
  125. Forced                      : No
  126.  
  127. Text #4
  128. ID                          : 7
  129. Format                      : UTF-8
  130. Codec ID                    : S_TEXT/UTF8
  131. Codec ID/Info               : UTF-8 Plain Text
  132. Duration                    : 58 min 5 s
  133. Bit rate                    : 40 b/s
  134. Count of elements           : 548
  135. Stream size                 : 17.2 KiB (0%)
  136. Title                       : Brazilian
  137. Language                    : Portuguese
  138. Default                     : No
  139. Forced                      : No
  140.  
  141. Text #5
  142. ID                          : 8
  143. Format                      : UTF-8
  144. Codec ID                    : S_TEXT/UTF8
  145. Codec ID/Info               : UTF-8 Plain Text
  146. Duration                    : 58 min 4 s
  147. Bit rate                    : 4 b/s
  148. Count of elements           : 63
  149. Stream size                 : 1.86 KiB (0%)
  150. Language                    : Spanish
  151. Default                     : No
  152. Forced                      : No
RAW Paste Data
We use cookies for various purposes including analytics. By continuing to use Pastebin, you agree to our use of cookies as described in the Cookies Policy. OK, I Understand
 
Top