SHARE
TWEET

Wonder Park BluRay 720p

dirtyharrys Jun 5th, 2019 (edited) 75 Never
Not a member of Pastebin yet? Sign Up, it unlocks many cool features!
  1. General
  2. Unique ID                   : 293650007921640880022019831408462544060 (0xDCEAEF3113585510CEA9E37A29663CBC)
  3. Complete name               : E:\V0VCV29uZGVyUGFya0RVQUw.mkv
  4. Format                      : Matroska
  5. Format version              : Version 4
  6. File size                   : 1.55 GiB
  7. Duration                    : 1 h 25 min
  8. Overall bit rate            : 2 601 kb/s
  9. Movie name                  : Wonder Park BR-RIP / Wonder Park BR-RIP
  10. Encoded date                : UTC 2019-06-15 08:20:56
  11. Writing application         : mkvmerge v30.1.0 ('Forever And More') 32-bit
  12. Writing library             : libebml v1.3.6 + libmatroska v1.4.9
  13. Copyright                   : Movies HDs 2019
  14. ARTIST                      : HarshLearner
  15.  
  16. Video
  17. ID                          : 1
  18. Format                      : AVC
  19. Format/Info                 : Advanced Video Codec
  20. Format profile              : High@L4.1
  21. Format settings             : CABAC / 4 Ref Frames
  22. Format settings, CABAC      : Yes
  23. Format settings, ReFrames   : 4 frames
  24. Codec ID                    : V_MPEG4/ISO/AVC
  25. Duration                    : 1 h 25 min
  26. Bit rate                    : 1 500 kb/s
  27. Width                       : 1 280 pixels
  28. Height                      : 534 pixels
  29. Display aspect ratio        : 2.40:1
  30. Original display aspect rat : 2.40:1
  31. Frame rate mode             : Constant
  32. Frame rate                  : 23.976 (23976/1000) FPS
  33. Color space                 : YUV
  34. Chroma subsampling          : 4:2:0
  35. Bit depth                   : 8 bits
  36. Scan type                   : Progressive
  37. Bits/(Pixel*Frame)          : 0.092
  38. Stream size                 : 915 MiB (58%)
  39. Title                       : Wonder Park
  40. Writing library             : x264 core 152 r2851M ba24899
  41. Default                     : Yes
  42. Forced                      : No
  43.  
  44. Audio #1
  45. ID                          : 2
  46. Format                      : AC-3
  47. Format/Info                 : Audio Coding 3
  48. Commercial name             : Dolby Digital
  49. Codec ID                    : A_AC3
  50. Duration                    : 1 h 25 min
  51. Bit rate mode               : Constant
  52. Bit rate                    : 448 kb/s
  53. Channel(s)                  : 6 channels
  54. Channel layout              : L R C LFE Ls Rs
  55. Sampling rate               : 48.0 kHz
  56. Frame rate                  : 31.250 FPS (1536 SPF)
  57. Bit depth                   : 16 bits
  58. Compression mode            : Lossy
  59. Stream size                 : 273 MiB (17%)
  60. Language                    : English
  61. Service kind                : Complete Main
  62. Default                     : No
  63. Forced                      : No
  64.  
  65. Audio #2
  66. ID                          : 3
  67. Format                      : AC-3
  68. Format/Info                 : Audio Coding 3
  69. Commercial name             : Dolby Digital
  70. Codec ID                    : A_AC3
  71. Duration                    : 1 h 25 min
  72. Bit rate mode               : Constant
  73. Bit rate                    : 640 kb/s
  74. Channel(s)                  : 6 channels
  75. Channel layout              : L R C LFE Ls Rs
  76. Sampling rate               : 48.0 kHz
  77. Frame rate                  : 31.250 FPS (1536 SPF)
  78. Bit depth                   : 16 bits
  79. Compression mode            : Lossy
  80. Stream size                 : 390 MiB (25%)
  81. Language                    : Spanish
  82. Service kind                : Complete Main
  83. Default                     : Yes
  84. Forced                      : Yes
  85.  
  86. Text #1
  87. ID                          : 4
  88. Format                      : PGS
  89. Muxing mode                 : zlib
  90. Codec ID                    : S_HDMV/PGS
  91. Codec ID/Info               : Picture based subtitle format used on BDs/HD-DVDs
  92. Duration                    : 1 h 17 min
  93. Bit rate                    : 39.8 kb/s
  94. Count of elements           : 2194
  95. Stream size                 : 22.0 MiB (1%)
  96. Language                    : Spanish
  97. Default                     : No
  98. Forced                      : No
  99.  
  100. Text #2
  101. ID                          : 5
  102. Format                      : UTF-8
  103. Codec ID                    : S_TEXT/UTF8
  104. Codec ID/Info               : UTF-8 Plain Text
  105. Duration                    : 1 h 17 min
  106. Bit rate                    : 64 b/s
  107. Count of elements           : 1105
  108. Stream size                 : 36.6 KiB (0%)
  109. Language                    : English
  110. Default                     : No
  111. Forced                      : No
  112.  
  113. Text #3
  114. ID                          : 6
  115. Format                      : UTF-8
  116. Codec ID                    : S_TEXT/UTF8
  117. Codec ID/Info               : UTF-8 Plain Text
  118. Duration                    : 1 h 17 min
  119. Bit rate                    : 64 b/s
  120. Count of elements           : 1086
  121. Stream size                 : 36.8 KiB (0%)
  122. Language                    : Spanish
  123. Default                     : Yes
  124. Forced                      : Yes
  125.  
  126. Menu
  127. 00:00:00.000                : :Chapter 01
  128. 00:06:34.811                : :Chapter 02
  129. 00:12:05.475                : :Chapter 03
  130. 00:20:22.847                : :Chapter 04
  131. 00:25:49.590                : :Chapter 05
  132. 00:33:03.648                : :Chapter 06
  133. 00:39:14.185                : :Chapter 07
  134. 00:47:39.648                : :Chapter 08
  135. 00:54:39.443                : :Chapter 09
  136. 01:00:32.462                : :Chapter 10
  137. 01:06:17.807                : :Chapter 11
  138. 01:13:12.054                : :Chapter 12
  139. 01:17:49.748                : :Chapter 13
RAW Paste Data
We use cookies for various purposes including analytics. By continuing to use Pastebin, you agree to our use of cookies as described in the Cookies Policy. OK, I Understand
 
Top