Guest User

Untitled

a guest
Jun 11th, 2014
196
Never
Not a member of Pastebin yet? Sign Up, it unlocks many cool features!
  1. General
  2. Devils.Knot.2013.Blu.Ray.1080p.CINEMANIA.mkv
  3. Format : Matroska
  4. Format version : Version 4 / Version 2
  5. File size : 10.3 GiB
  6. Duration : 1h 54mn
  7. Overall bit rate : 12.9 Mbps
  8. Movie name : Release Group CINEMANIA
  9. Encoded date : UTC 2014-06-11 16:44:39
  10. Writing application : mkvmerge v7.0.0 ('Where We Going') 64bit built on Jun 9 2014 15:16:27
  11. Writing library : libebml v1.3.0 + libmatroska v1.4.1
  12.  
  13. Video
  14. ID : 1
  15. Format : AVC
  16. Format/Info : Advanced Video Codec
  17. Format profile : High@L4.1
  18. Format settings, CABAC : Yes
  19. Format settings, ReFrames : 4 frames
  20. Codec ID : V_MPEG4/ISO/AVC
  21. Duration : 1h 54mn
  22. Bit rate : 9 405 Kbps
  23. Width : 1 920 pixels
  24. Height : 1 080 pixels
  25. Display aspect ratio : 16:9
  26. Frame rate mode : Constant
  27. Frame rate : 23.976 fps
  28. Color space : YUV
  29. Chroma subsampling : 4:2:0
  30. Bit depth : 8 bits
  31. Scan type : Progressive
  32. Bits/(Pixel*Frame) : 0.189
  33. Stream size : 7.29 GiB (71%)
  34. Title : Release Group CINEMANIA
  35. Writing library : x264 core 138 r2356 a1d3d17
  36. Encoding settings : cabac=1 / ref=4 / deblock=1:-3:-3 / analyse=0x3:0x113 / me=umh / subme=10 / psy=1 / psy_rd=1.00:0.05 / mixed_ref=1 / me_range=32 / chroma_me=1 / trellis=2 / 8x8dct=1 / cqm=0 / deadzone=21,11 / fast_pskip=0 / chroma_qp_offset=-2 / threads=18 / lookahead_threads=1 / sliced_threads=0 / nr=0 / decimate=1 / interlaced=0 / bluray_compat=0 / constrained_intra=0 / bframes=5 / b_pyramid=2 / b_adapt=2 / b_bias=0 / direct=3 / weightb=1 / open_gop=0 / weightp=2 / keyint=250 / keyint_min=23 / scenecut=40 / intra_refresh=0 / rc=2pass / mbtree=0 / bitrate=9405 / ratetol=1.0 / qcomp=0.70 / qpmin=0 / qpmax=69 / qpstep=4 / cplxblur=20.0 / qblur=0.5 / ip_ratio=1.40 / pb_ratio=1.30 / aq=2:0.90
  37. Language : English
  38. Default : Yes
  39. Forced : No
  40.  
  41. Audio #1
  42. ID : 2
  43. Format : DTS
  44. Format/Info : Digital Theater Systems
  45. Mode : 16
  46. Format settings, Endianness : Big
  47. Codec ID : A_DTS
  48. Duration : 1h 54mn
  49. Bit rate mode : Constant
  50. Bit rate : 1 509 Kbps
  51. Channel(s) : 6 channels
  52. Channel positions : Front: L C R, Side: L R, LFE
  53. Sampling rate : 48.0 KHz
  54. Bit depth : 24 bits
  55. Compression mode : Lossy
  56. Stream size : 1.20 GiB (12%)
  57. Title : С.Визгунов
  58. Language : Russian
  59. Default : Yes
  60. Forced : Yes
  61.  
  62. Audio #2
  63. ID : 3
  64. Format : AC-3
  65. Format/Info : Audio Coding 3
  66. Mode extension : CM (complete main)
  67. Format settings, Endianness : Big
  68. Codec ID : A_AC3
  69. Duration : 1h 54mn
  70. Bit rate mode : Constant
  71. Bit rate : 448 Kbps
  72. Channel(s) : 6 channels
  73. Channel positions : Front: L C R, Side: L R, LFE
  74. Sampling rate : 48.0 KHz
  75. Bit depth : 16 bits
  76. Compression mode : Lossy
  77. Stream size : 366 MiB (3%)
  78. Title : С.Визгунов
  79. Language : Russian
  80. Default : No
  81. Forced : No
  82.  
  83. Audio #3
  84. ID : 4
  85. Format : DTS
  86. Format/Info : Digital Theater Systems
  87. Mode : 16
  88. Format settings, Endianness : Big
  89. Codec ID : A_DTS
  90. Duration : 1h 54mn
  91. Bit rate mode : Constant
  92. Bit rate : 1 509 Kbps
  93. Channel(s) : 6 channels
  94. Channel positions : Front: L C R, Side: L R, LFE
  95. Sampling rate : 48.0 KHz
  96. Bit depth : 24 bits
  97. Compression mode : Lossy
  98. Stream size : 1.20 GiB (12%)
  99. Language : English
  100. Default : No
  101. Forced : No
  102.  
  103. Text
  104. ID : 5
  105. Format : UTF-8
  106. Codec ID : S_TEXT/UTF8
  107. Codec ID/Info : UTF-8 Plain Text
  108. Language : English
  109. Default : No
  110. Forced : No
  111.  
  112. Menu
  113. 00:00:00.000 : en:00:00:00.000
  114. 00:08:30.677 : en:00:08:30.677
  115. 00:18:31.610 : en:00:18:31.610
  116. 00:28:47.017 : en:00:28:47.017
  117. 00:39:43.256 : en:00:39:43.256
  118. 00:47:33.851 : en:00:47:33.851
  119. 00:55:14.394 : en:00:55:14.394
  120. 01:05:13.076 : en:01:05:13.076
  121. 01:15:08.003 : en:01:15:08.003
  122. 01:25:55.859 : en:01:25:55.859
  123. 01:39:17.326 : en:01:39:17.326
  124. 01:47:54.301 : en:01:47:54.301
RAW Paste Data