SHARE
TWEET

Untitled

mft39anton May 18th, 2018 112 Never
Not a member of Pastebin yet? Sign Up, it unlocks many cool features!
  1. Disc Title:     vincentNroxxi BDFll
  2. Disc Size:      32,835,546,383 bytes
  3. Protection:     AACS
  4. BD-Java:        No
  5. BDInfo:         0.5.8
  6.  
  7. Notes:          
  8.  
  9. BDINFO HOME:
  10.   Cinema Squid
  11.     http://www.cinemasquid.com/blu-ray/tools/bdinfo
  12.  
  13. INCLUDES FORUMS REPORT FOR:
  14.   AVS Forum Blu-ray Audio and Video Specifications Thread
  15.     http://www.avsforum.com/avs-vb/showthread.php?t=1155731
  16.  
  17.  
  18. ********************
  19. PLAYLIST: 00000.MPLS
  20. ********************
  21.  
  22. <--- BEGIN FORUMS PASTE --->
  23. [code]
  24.                                                                                                                 Total   Video                                            
  25. Title                                                           Codec   Length  Movie Size      Disc Size       Bitrate Bitrate Main Audio Track                          Secondary Audio Track
  26. -----                                                           ------  ------- --------------  --------------  ------- ------- ------------------                        ---------------------
  27. 00000.MPLS                                                      AVC     1:41:29 29,658,673,152  32,835,546,383  38.96   30.00   DTS-HD Master 5.1 4266Kbps (48kHz/24-bit)
  28. [/code]
  29.  
  30. [code]
  31.  
  32. DISC INFO:
  33.  
  34. Disc Title:     vincentNroxxi BDFll
  35. Disc Size:      32,835,546,383 bytes
  36. Protection:     AACS
  37. BD-Java:        No
  38. BDInfo:         0.5.8
  39.  
  40. PLAYLIST REPORT:
  41.  
  42. Name:                   00000.MPLS
  43. Length:                 1:41:29.958 (h:m:s.ms)
  44. Size:                   29,658,673,152 bytes
  45. Total Bitrate:          38.96 Mbps
  46.  
  47. VIDEO:
  48.  
  49. Codec                   Bitrate             Description    
  50. -----                   -------             -----------    
  51. MPEG-4 AVC Video        30003 kbps          1080p / 23.976 fps / 16:9 / High Profile 4.1
  52.  
  53. AUDIO:
  54.  
  55. Codec                           Language        Bitrate         Description    
  56. -----                           --------        -------         -----------    
  57. DTS-HD Master Audio             Italian         4266 kbps       5.1 / 48 kHz / 4266 kbps / 24-bit (DTS Core: 5.1 / 48 kHz / 1509 kbps / 24-bit / DN -5dB)
  58. DTS-HD Master Audio             English         2520 kbps       5.1 / 48 kHz / 2520 kbps / 24-bit (DTS Core: 5.1 / 48 kHz / 1509 kbps / 24-bit / DN -4dB)
  59.  
  60. SUBTITLES:
  61.  
  62. Codec                           Language        Bitrate         Description    
  63. -----                           --------        -------         -----------    
  64. Presentation Graphics           Italian         16.808 kbps                    
  65.  
  66. FILES:
  67.  
  68. Name            Time In         Length          Size            Total Bitrate  
  69. ----            -------         ------          ----            -------------  
  70. 00000.M2TS      0:00:00.000     1:41:29.958     29,658,673,152  38,961          
  71.  
  72. CHAPTERS:
  73.  
  74. Number          Time In         Length          Avg Video Rate  Max 1-Sec Rate  Max 1-Sec Time  Max 5-Sec Rate  Max 5-Sec Time  Max 10Sec Rate  Max 10Sec Time  Avg Frame Size  Max Frame Size  Max Frame Time  
  75. ------          -------         ------          --------------  --------------  --------------  --------------  --------------  --------------  --------------  --------------  --------------  --------------  
  76. 1               0:00:00.000     0:08:33.554     30,982 kbps     48,855 kbps     00:00:49.466    38,569 kbps     00:00:38.747    37,356 kbps     00:00:40.498    161,515 bytes   664,334 bytes   00:00:49.716    
  77. 2               0:08:33.554     0:07:49.260     28,644 kbps     41,957 kbps     00:13:16.629    35,766 kbps     00:10:23.831    35,235 kbps     00:08:36.516    149,337 bytes   568,769 bytes   00:08:44.065    
  78. 3               0:16:22.815     0:10:04.478     28,718 kbps     43,388 kbps     00:20:23.055    40,508 kbps     00:20:22.679    37,770 kbps     00:20:22.804    149,724 bytes   572,943 bytes   00:21:10.018    
  79. 4               0:26:27.294     0:08:20.750     33,084 kbps     44,472 kbps     00:28:07.560    39,894 kbps     00:27:53.004    37,724 kbps     00:29:20.717    172,485 bytes   628,992 bytes   00:31:48.823    
  80. 5               0:34:48.044     0:09:07.630     31,854 kbps     43,448 kbps     00:41:17.558    40,336 kbps     00:41:15.055    37,757 kbps     00:41:15.055    166,074 bytes   580,542 bytes   00:35:56.779    
  81. 6               0:43:55.674     0:08:02.982     27,607 kbps     42,476 kbps     00:49:11.073    40,490 kbps     00:49:07.110    35,670 kbps     00:49:30.008    143,928 bytes   564,644 bytes   00:51:39.888    
  82. 7               0:51:58.657     0:08:04.567     32,564 kbps     43,192 kbps     00:51:59.699    40,642 kbps     00:51:59.616    37,802 kbps     00:51:59.783    169,776 bytes   606,092 bytes   00:56:57.372    
  83. 8               1:00:03.224     0:12:50.060     31,208 kbps     57,375 kbps     01:08:02.203    40,599 kbps     01:09:25.119    37,767 kbps     01:06:05.628    162,705 bytes   684,830 bytes   01:09:57.860    
  84. 9               1:12:53.285     0:06:28.596     34,935 kbps     40,506 kbps     01:13:13.180    38,271 kbps     01:13:10.177    37,169 kbps     01:13:05.672    182,135 bytes   599,144 bytes   01:13:59.601    
  85. 10              1:19:21.882     0:06:05.573     34,998 kbps     39,615 kbps     01:23:39.931    36,117 kbps     01:23:25.458    35,566 kbps     01:23:35.635    182,465 bytes   615,819 bytes   01:22:48.463    
  86. 11              1:25:27.455     0:10:47.104     33,590 kbps     46,500 kbps     01:29:44.504    40,414 kbps     01:27:30.536    37,639 kbps     01:27:30.286    175,121 bytes   577,745 bytes   01:35:19.547    
  87. 12              1:36:14.560     0:05:15.398     2,350 kbps      11,322 kbps     01:40:27.563    10,507 kbps     01:40:27.187    9,840 kbps      01:40:23.934    12,256 bytes    235,630 bytes   01:40:27.813    
  88.  
  89. STREAM DIAGNOSTICS:
  90.  
  91. File            PID             Type            Codec           Language                Seconds                 Bitrate                 Bytes           Packets        
  92. ----            ---             ----            -----           --------                --------------          --------------          -------------   -----          
  93. 00000.M2TS      4113 (0x1011)   0x1B            AVC                                     6089.875                30,003                  22,839,525,938  124,212,137    
  94. 00000.M2TS      4352 (0x1100)   0x86            DTS-HD MA       ita (Italian)           6089.875                4,266                   3,247,591,124   18,605,681      
  95. 00000.M2TS      4353 (0x1101)   0x86            DTS-HD MA       eng (English)           6089.875                2,520                   1,918,524,356   11,376,037      
  96. 00000.M2TS      4608 (0x1200)   0x90            PGS             ita (Italian)           6089.875                17                      12,794,889      74,358          
  97.  
  98. [/code]
  99. <---- END FORUMS PASTE ---->
  100.  
  101. QUICK SUMMARY:
  102.  
  103. Disc Title: vincentNroxxi BDFll
  104. Disc Size: 32,835,546,383 bytes
  105. Protection: AACS
  106. BD-Java: No
  107. Playlist: 00000.MPLS
  108. Size: 29,658,673,152 bytes
  109. Length: 1:41:29.958
  110. Total Bitrate: 38.96 Mbps
  111. Video: MPEG-4 AVC Video / 30003 kbps / 1080p / 23.976 fps / 16:9 / High Profile 4.1
  112. Audio: Italian / DTS-HD Master Audio / 5.1 / 48 kHz / 4266 kbps / 24-bit (DTS Core: 5.1 / 48 kHz / 1509 kbps / 24-bit / DN -5dB)
  113. Audio: English / DTS-HD Master Audio / 5.1 / 48 kHz / 2520 kbps / 24-bit (DTS Core: 5.1 / 48 kHz / 1509 kbps / 24-bit / DN -4dB)
  114. Subtitle: Italian / 16.808 kbps
  115.  
  116.  
  117. ********************
  118. PLAYLIST: 00002.MPLS
  119. ********************
  120.  
  121. <--- BEGIN FORUMS PASTE --->
  122. [code]
  123.                                                                                                                 Total   Video                                            
  124. Title                                                           Codec   Length  Movie Size      Disc Size       Bitrate Bitrate Main Audio Track                          Secondary Audio Track
  125. -----                                                           ------  ------- --------------  --------------  ------- ------- ------------------                        ---------------------
  126. 00002.MPLS                                                      AVC     0:11:19 2,494,402,560   32,835,546,383  29.38   24.14   DTS-HD Master 5.1 3707Kbps (48kHz/24-bit)
  127. [/code]
  128.  
  129. [code]
  130.  
  131. DISC INFO:
  132.  
  133. Disc Title:     vincentNroxxi BDFll
  134. Disc Size:      32,835,546,383 bytes
  135. Protection:     AACS
  136. BD-Java:        No
  137. BDInfo:         0.5.8
  138.  
  139. PLAYLIST REPORT:
  140.  
  141. Name:                   00002.MPLS
  142. Length:                 0:11:19.291 (h:m:s.ms)
  143. Size:                   2,494,402,560 bytes
  144. Total Bitrate:          29.38 Mbps
  145.  
  146. VIDEO:
  147.  
  148. Codec                   Bitrate             Description    
  149. -----                   -------             -----------    
  150. MPEG-4 AVC Video        24140 kbps          1080p / 24 fps / 16:9 / High Profile 4.1
  151.  
  152. AUDIO:
  153.  
  154. Codec                           Language        Bitrate         Description    
  155. -----                           --------        -------         -----------    
  156. DTS-HD Master Audio             Italian         3707 kbps       5.1 / 48 kHz / 3707 kbps / 24-bit (DTS Core: 5.1 / 48 kHz / 1509 kbps / 24-bit / DN -8dB)
  157.  
  158. FILES:
  159.  
  160. Name            Time In         Length          Size            Total Bitrate  
  161. ----            -------         ------          ----            -------------  
  162. 00001.M2TS      0:00:00.000     0:01:38.166     371,896,320     30,307          
  163. 00007.M2TS      0:01:38.166     0:01:52.666     471,011,328     33,445          
  164. 00008.M2TS      0:03:30.833     0:01:43.333     399,083,520     30,897          
  165. 00012.M2TS      0:05:14.166     0:02:22.500     539,645,952     30,296          
  166. 00013.M2TS      0:07:36.666     0:01:33.291     336,857,088     28,886          
  167. 00003.M2TS      0:09:09.958     0:02:09.333     375,908,352     23,252          
  168.  
  169. CHAPTERS:
  170.  
  171. Number          Time In         Length          Avg Video Rate  Max 1-Sec Rate  Max 1-Sec Time  Max 5-Sec Rate  Max 5-Sec Time  Max 10Sec Rate  Max 10Sec Time  Avg Frame Size  Max Frame Size  Max Frame Time  
  172. ------          -------         ------          --------------  --------------  --------------  --------------  --------------  --------------  --------------  --------------  --------------  --------------  
  173. 1               0:00:00.000     0:01:38.166     24,627 kbps     50,455 kbps     00:00:32.874    35,260 kbps     00:01:16.958    32,612 kbps     00:00:32.166    128,214 bytes   485,123 bytes   00:00:33.041    
  174. 2               0:01:38.166     0:01:52.666     27,818 kbps     61,142 kbps     00:02:27.458    40,634 kbps     00:01:50.916    37,726 kbps     00:02:27.333    144,884 bytes   559,389 bytes   00:01:52.333    
  175. 3               0:03:30.833     0:01:43.333     25,000 kbps     50,603 kbps     00:05:04.208    35,359 kbps     00:03:57.583    32,394 kbps     00:03:39.541    130,208 bytes   684,980 bytes   00:04:21.083    
  176. 4               0:05:14.166     0:02:22.500     24,417 kbps     49,046 kbps     00:07:20.208    35,051 kbps     00:06:41.416    32,151 kbps     00:05:18.124    127,173 bytes   955,512 bytes   00:05:27.791    
  177. 5               0:07:36.666     0:01:33.291     24,999 kbps     44,450 kbps     00:08:10.958    35,259 kbps     00:07:44.166    32,369 kbps     00:07:44.041    130,204 bytes   872,407 bytes   00:07:46.166    
  178. 6               0:09:09.958     0:02:09.333     18,956 kbps     62,337 kbps     00:11:02.250    40,088 kbps     00:10:43.166    36,841 kbps     00:10:04.583    98,760 bytes    541,832 bytes   00:11:02.583    
  179.  
  180. STREAM DIAGNOSTICS:
  181.  
  182. File            PID             Type            Codec           Language                Seconds                 Bitrate                 Bytes           Packets        
  183. ----            ---             ----            -----           --------                --------------          --------------          -------------   -----          
  184. 00001.M2TS      4113 (0x1011)   0x1B            AVC                                     98.000                  24,669                  302,196,901     1,643,758      
  185. 00001.M2TS      4352 (0x1100)   0x86            DTS-HD MA       ita (Italian)           98.000                  4,087                   50,067,136      289,879        
  186. 00007.M2TS      4113 (0x1011)   0x1B            AVC                                     112.500                 27,859                  391,766,473     2,130,727      
  187. 00007.M2TS      4352 (0x1100)   0x86            DTS-HD MA       ita (Italian)           112.500                 3,937                   55,369,032      318,654        
  188. 00008.M2TS      4113 (0x1011)   0x1B            AVC                                     103.208                 25,030                  322,916,452     1,756,404      
  189. 00008.M2TS      4352 (0x1100)   0x86            DTS-HD MA       ita (Italian)           103.208                 4,323                   55,766,352      318,647        
  190. 00012.M2TS      4113 (0x1011)   0x1B            AVC                                     142.417                 24,431                  434,930,845     2,365,703      
  191. 00012.M2TS      4352 (0x1100)   0x86            DTS-HD MA       ita (Italian)           142.417                 4,307                   76,665,724      440,151        
  192. 00013.M2TS      4113 (0x1011)   0x1B            AVC                                     93.125                  25,044                  291,526,862     1,585,685      
  193. 00013.M2TS      4352 (0x1100)   0x86            DTS-HD MA       ita (Italian)           93.125                  2,384                   27,747,736      165,611        
  194. 00003.M2TS      4113 (0x1011)   0x1B            AVC                                     129.208                 18,974                  306,454,800     1,667,262      
  195. 00003.M2TS      4352 (0x1100)   0x86            DTS-HD MA       ita (Italian)           129.208                 3,043                   49,150,408      286,234        
  196.  
  197. [/code]
  198. <---- END FORUMS PASTE ---->
  199.  
  200. QUICK SUMMARY:
  201.  
  202. Disc Title: vincentNroxxi BDFll
  203. Disc Size: 32,835,546,383 bytes
  204. Protection: AACS
  205. BD-Java: No
  206. Playlist: 00002.MPLS
  207. Size: 2,494,402,560 bytes
  208. Length: 0:11:19.291
  209. Total Bitrate: 29.38 Mbps
  210. Video: MPEG-4 AVC Video / 24140 kbps / 1080p / 24 fps / 16:9 / High Profile 4.1
  211. Audio: Italian / DTS-HD Master Audio / 5.1 / 48 kHz / 3707 kbps / 24-bit (DTS Core: 5.1 / 48 kHz / 1509 kbps / 24-bit / DN -8dB)
  212.  
  213.  
  214. ********************
  215. PLAYLIST: 00004.MPLS
  216. ********************
  217.  
  218. <--- BEGIN FORUMS PASTE --->
  219. [code]
  220.                                                                                                                 Total   Video                                            
  221. Title                                                           Codec   Length  Movie Size      Disc Size       Bitrate Bitrate Main Audio Track                          Secondary Audio Track
  222. -----                                                           ------  ------- --------------  --------------  ------- ------- ------------------                        ---------------------
  223. 00004.MPLS                                                      AVC     0:01:32 417,951,744     32,835,546,383  36.06   30.01   DTS-HD Master 5.1 4238Kbps (48kHz/24-bit)
  224. [/code]
  225.  
  226. [code]
  227.  
  228. DISC INFO:
  229.  
  230. Disc Title:     vincentNroxxi BDFll
  231. Disc Size:      32,835,546,383 bytes
  232. Protection:     AACS
  233. BD-Java:        No
  234. BDInfo:         0.5.8
  235.  
  236. PLAYLIST REPORT:
  237.  
  238. Name:                   00004.MPLS
  239. Length:                 0:01:32.717 (h:m:s.ms)
  240. Size:                   417,951,744 bytes
  241. Total Bitrate:          36.06 Mbps
  242.  
  243. VIDEO:
  244.  
  245. Codec                   Bitrate             Description    
  246. -----                   -------             -----------    
  247. MPEG-4 AVC Video        30012 kbps          1080p / 23.976 fps / 16:9 / High Profile 4.1
  248.  
  249. AUDIO:
  250.  
  251. Codec                           Language        Bitrate         Description    
  252. -----                           --------        -------         -----------    
  253. DTS-HD Master Audio             Italian         4238 kbps       5.1 / 48 kHz / 4238 kbps / 24-bit (DTS Core: 5.1 / 48 kHz / 1509 kbps / 24-bit / DN -8dB)
  254.  
  255. FILES:
  256.  
  257. Name            Time In         Length          Size            Total Bitrate  
  258. ----            -------         ------          ----            -------------  
  259. 00014.M2TS      0:00:00.000     0:01:32.717     417,951,744     36,062          
  260.  
  261. CHAPTERS:
  262.  
  263. Number          Time In         Length          Avg Video Rate  Max 1-Sec Rate  Max 1-Sec Time  Max 5-Sec Rate  Max 5-Sec Time  Max 10Sec Rate  Max 10Sec Time  Avg Frame Size  Max Frame Size  Max Frame Time  
  264. ------          -------         ------          --------------  --------------  --------------  --------------  --------------  --------------  --------------  --------------  --------------  --------------  
  265. 1               0:00:00.000     0:01:32.717     30,012 kbps     63,226 kbps     00:00:14.514    40,520 kbps     00:00:14.514    37,761 kbps     00:00:06.965    156,471 bytes   912,902 bytes   00:00:52.802    
  266.  
  267. STREAM DIAGNOSTICS:
  268.  
  269. File            PID             Type            Codec           Language                Seconds                 Bitrate                 Bytes           Packets        
  270. ----            ---             ----            -----           --------                --------------          --------------          -------------   -----          
  271. 00014.M2TS      4113 (0x1011)   0x1B            AVC                                     92.551                  30,067                  347,835,567     1,891,711      
  272. 00014.M2TS      4352 (0x1100)   0x86            DTS-HD MA       ita (Italian)           92.551                  4,245                   49,112,080      281,984        
  273.  
  274. [/code]
  275. <---- END FORUMS PASTE ---->
  276.  
  277. QUICK SUMMARY:
  278.  
  279. Disc Title: vincentNroxxi BDFll
  280. Disc Size: 32,835,546,383 bytes
  281. Protection: AACS
  282. BD-Java: No
  283. Playlist: 00004.MPLS
  284. Size: 417,951,744 bytes
  285. Length: 0:01:32.717
  286. Total Bitrate: 36.06 Mbps
  287. Video: MPEG-4 AVC Video / 30012 kbps / 1080p / 23.976 fps / 16:9 / High Profile 4.1
  288. Audio: Italian / DTS-HD Master Audio / 5.1 / 48 kHz / 4238 kbps / 24-bit (DTS Core: 5.1 / 48 kHz / 1509 kbps / 24-bit / DN -8dB)
  289.  
  290.  
  291. ********************
  292. PLAYLIST: 00008.MPLS
  293. ********************
  294.  
  295. <--- BEGIN FORUMS PASTE --->
  296. [code]
  297.                                                                                                                 Total   Video                                            
  298. Title                                                           Codec   Length  Movie Size      Disc Size       Bitrate Bitrate Main Audio Track                          Secondary Audio Track
  299. -----                                                           ------  ------- --------------  --------------  ------- ------- ------------------                        ---------------------
  300. 00008.MPLS                                                      AVC     0:01:00 28,502,016      32,835,546,383  3.80    3.57                                              
  301. [/code]
  302.  
  303. [code]
  304.  
  305. DISC INFO:
  306.  
  307. Disc Title:     vincentNroxxi BDFll
  308. Disc Size:      32,835,546,383 bytes
  309. Protection:     AACS
  310. BD-Java:        No
  311. BDInfo:         0.5.8
  312.  
  313. PLAYLIST REPORT:
  314.  
  315. Name:                   00008.MPLS
  316. Length:                 0:01:00.059 (h:m:s.ms)
  317. Size:                   28,502,016 bytes
  318. Total Bitrate:          3.80 Mbps
  319.  
  320. VIDEO:
  321.  
  322. Codec                   Bitrate             Description    
  323. -----                   -------             -----------    
  324. MPEG-4 AVC Video        3567 kbps           1080p / 23.976 fps / 16:9 / High Profile 4.1
  325.  
  326. FILES:
  327.  
  328. Name            Time In         Length          Size            Total Bitrate  
  329. ----            -------         ------          ----            -------------  
  330. 00006.M2TS      0:00:00.000     0:01:00.059     28,502,016      3,796          
  331.  
  332. CHAPTERS:
  333.  
  334. Number          Time In         Length          Avg Video Rate  Max 1-Sec Rate  Max 1-Sec Time  Max 5-Sec Rate  Max 5-Sec Time  Max 10Sec Rate  Max 10Sec Time  Avg Frame Size  Max Frame Size  Max Frame Time  
  335. ------          -------         ------          --------------  --------------  --------------  --------------  --------------  --------------  --------------  --------------  --------------  --------------  
  336. 1               0:00:00.000     0:01:00.059     3,567 kbps      4,000 kbps      00:00:59.017    4,000 kbps      00:00:55.013    4,000 kbps      00:00:50.008    18,597 bytes    20,859 bytes    00:01:00.018    
  337.  
  338. STREAM DIAGNOSTICS:
  339.  
  340. File            PID             Type            Codec           Language                Seconds                 Bitrate                 Bytes           Packets        
  341. ----            ---             ----            -----           --------                --------------          --------------          -------------   -----          
  342. 00006.M2TS      4113 (0x1011)   0x1B            AVC                                     59.935                  3,575                   26,780,073      146,434        
  343.  
  344. [/code]
  345. <---- END FORUMS PASTE ---->
  346.  
  347. QUICK SUMMARY:
  348.  
  349. Disc Title: vincentNroxxi BDFll
  350. Disc Size: 32,835,546,383 bytes
  351. Protection: AACS
  352. BD-Java: No
  353. Playlist: 00008.MPLS
  354. Size: 28,502,016 bytes
  355. Length: 0:01:00.059
  356. Total Bitrate: 3.80 Mbps
  357. Video: MPEG-4 AVC Video / 3567 kbps / 1080p / 23.976 fps / 16:9 / High Profile 4.1
  358.  
  359.  
  360. ********************
  361. PLAYLIST: 00009.MPLS
  362. ********************
  363.  
  364. <--- BEGIN FORUMS PASTE --->
  365. [code]
  366.                                                                                                                 Total   Video                                            
  367. Title                                                           Codec   Length  Movie Size      Disc Size       Bitrate Bitrate Main Audio Track                          Secondary Audio Track
  368. -----                                                           ------  ------- --------------  --------------  ------- ------- ------------------                        ---------------------
  369. 00009.MPLS                                                      AVC     0:00:26 27,998,208      32,835,546,383  8.49    6.44    DTS-HD Master 5.1 1506Kbps (48kHz/24-bit)
  370. [/code]
  371.  
  372. [code]
  373.  
  374. DISC INFO:
  375.  
  376. Disc Title:     vincentNroxxi BDFll
  377. Disc Size:      32,835,546,383 bytes
  378. Protection:     AACS
  379. BD-Java:        No
  380. BDInfo:         0.5.8
  381.  
  382. PLAYLIST REPORT:
  383.  
  384. Name:                   00009.MPLS
  385. Length:                 0:00:26.375 (h:m:s.ms)
  386. Size:                   27,998,208 bytes
  387. Total Bitrate:          8.49 Mbps
  388.  
  389. VIDEO:
  390.  
  391. Codec                   Bitrate             Description    
  392. -----                   -------             -----------    
  393. MPEG-4 AVC Video        6442 kbps           1080p / 24 fps / 16:9 / High Profile 4.1
  394.  
  395. AUDIO:
  396.  
  397. Codec                           Language        Bitrate         Description    
  398. -----                           --------        -------         -----------    
  399. DTS-HD Master Audio             Italian         1506 kbps       5.1 / 48 kHz / 1506 kbps / 24-bit (DTS Core: 5.1 / 48 kHz / 1509 kbps / 24-bit / DN -9dB)
  400.  
  401. FILES:
  402.  
  403. Name            Time In         Length          Size            Total Bitrate  
  404. ----            -------         ------          ----            -------------  
  405. 00004.M2TS      0:00:00.000     0:00:11.000     22,843,392      16,613          
  406. 00002.M2TS      0:00:11.000     0:00:08.375     2,549,760       2,436          
  407. 00005.M2TS      0:00:19.375     0:00:07.000     2,605,056       2,977          
  408.  
  409. CHAPTERS:
  410.  
  411. Number          Time In         Length          Avg Video Rate  Max 1-Sec Rate  Max 1-Sec Time  Max 5-Sec Rate  Max 5-Sec Time  Max 10Sec Rate  Max 10Sec Time  Avg Frame Size  Max Frame Size  Max Frame Time  
  412. ------          -------         ------          --------------  --------------  --------------  --------------  --------------  --------------  --------------  --------------  --------------  --------------  
  413. 1               0:00:00.000     0:00:26.375     6,442 kbps      23,734 kbps     00:00:03.958    17,777 kbps     00:00:02.999    13,337 kbps     00:00:00.999    33,550 bytes    247,184 bytes   00:00:08.000    
  414.  
  415. STREAM DIAGNOSTICS:
  416.  
  417. File            PID             Type            Codec           Language                Seconds                 Bitrate                 Bytes           Packets        
  418. ----            ---             ----            -----           --------                --------------          --------------          -------------   -----          
  419. 00004.M2TS      4113 (0x1011)   0x1B            AVC                                     10.875                  12,271                  16,680,824      90,800          
  420. 00004.M2TS      4352 (0x1100)   0x86            DTS-HD MA       ita (Italian)           10.875                  3,506                   4,765,316       27,759          
  421. 00002.M2TS      4113 (0x1011)   0x1B            AVC                                     8.250                   2,058                   2,121,905       11,651          
  422. 00002.M2TS      4352 (0x1100)   0x81            AC3             ita (Italian)           8.250                   195                     201,216         1,310          
  423. 00005.M2TS      4113 (0x1011)   0x1B            AVC                                     6.833                   2,850                   2,434,288       13,313          
  424.  
  425. [/code]
  426. <---- END FORUMS PASTE ---->
  427.  
  428. QUICK SUMMARY:
  429.  
  430. Disc Title: vincentNroxxi BDFll
  431. Disc Size: 32,835,546,383 bytes
  432. Protection: AACS
  433. BD-Java: No
  434. Playlist: 00009.MPLS
  435. Size: 27,998,208 bytes
  436. Length: 0:00:26.375
  437. Total Bitrate: 8.49 Mbps
  438. Video: MPEG-4 AVC Video / 6442 kbps / 1080p / 24 fps / 16:9 / High Profile 4.1
  439. Audio: Italian / DTS-HD Master Audio / 5.1 / 48 kHz / 1506 kbps / 24-bit (DTS Core: 5.1 / 48 kHz / 1509 kbps / 24-bit / DN -9dB)
RAW Paste Data
We use cookies for various purposes including analytics. By continuing to use Pastebin, you agree to our use of cookies as described in the Cookies Policy. OK, I Understand
 
Top