SHARE
TWEET

Untitled

a guest Aug 12th, 2017 45 Never
Not a member of Pastebin yet? Sign Up, it unlocks many cool features!
  1. Input #0, mov,mp4,m4a,3gp,3g2,mj2, from '':
  2.   Metadata:
  3.     major_brand     : qt  
  4.     minor_version   : 0
  5.     compatible_brands: qt  
  6.     creation_time   : 2011-04-20 19:38:27
  7.     encoder         : 4.0
  8.     encoder-eng     : 4.0
  9.     date            : 2010-07-04T22:40:08-0400
  10.     date-eng        : 2010-07-04T22:40:08-0400
  11.   Duration: 00:00:40.30, start: 0.000000, bitrate: 792 kb/s
  12.     Stream #0.0(und): Audio: aac, 44100 Hz, mono, s16, 63 kb/s
  13.     Metadata:
  14.       creation_time   : 2011-04-20 19:38:27
  15.     Stream #0.1(und): Video: h264 (Baseline), yuv420p, 480x360, 725 kb/s, 30 fps, 30 tbr, 600 tbn, 1200 tbc
  16.     Metadata:
  17.       creation_time   : 2011-04-20 19:38:27
  18.  
  19. Output #0, flv, to 'test.flv':
  20.     Stream #0.0: Audio: adpcm_swf, 44100 Hz, 1 channels, s16, 63 kb/s
  21.     Stream #0.1: Video: flv, yuv420p, 480x360, q=2-31, 400 kb/s, 90k tbn, 30 tbc
RAW Paste Data
Top