SHARE
TWEET

Untitled

seleZennet Oct 23rd, 2019 125 Never
Not a member of Pastebin yet? Sign Up, it unlocks many cool features!
  1. General
  2. Unique ID                   : 290763840942999083344793804898082931424 (0xDABF142C596D16FB2A37C4E66E72C2E0)
  3. Complete name               : D:\Video111\Yesterday.2019.Lic.BDREMUX.2160p.HDR.seleZen.mkv
  4. Format                      : Matroska
  5. Format version              : Version 4
  6. File size                   : 52.6 GiB
  7. Duration                    : 1 h 56 min
  8. Overall bit rate mode       : Variable
  9. Overall bit rate            : 64.8 Mb/s
  10. Movie name                  : Yesterday 2019 4K from селезень
  11. Encoded date                : UTC 2019-10-24 03:03:01
  12. Writing application         : mkvmerge v22.0.0 ('At The End Of The World') 64-bit
  13. Writing library             : libebml v1.3.5 + libmatroska v1.4.8
  14.  
  15. Video
  16. ID                          : 1
  17. Format                      : HEVC
  18. Format/Info                 : High Efficiency Video Coding
  19. Format profile              : Main 10@L5.1@High
  20. HDR format                  : SMPTE ST 2094 App 4, Version 1, HDR10+ Profile B compatible
  21. Codec ID                    : V_MPEGH/ISO/HEVC
  22. Duration                    : 1 h 56 min
  23. Bit rate                    : 60.4 Mb/s
  24. Width                       : 3 840 pixels
  25. Height                      : 2 160 pixels
  26. Display aspect ratio        : 16:9
  27. Frame rate mode             : Constant
  28. Frame rate                  : 23.976 (24000/1001) FPS
  29. Color space                 : YUV
  30. Chroma subsampling          : 4:2:0 (Type 2)
  31. Bit depth                   : 10 bits
  32. Bits/(Pixel*Frame)          : 0.304
  33. Stream size                 : 49.0 GiB (93%)
  34. Language                    : English
  35. Default                     : Yes
  36. Forced                      : No
  37. Color range                 : Limited
  38. Color primaries             : BT.2020
  39. Transfer characteristics    : PQ
  40. Matrix coefficients         : BT.2020 non-constant
  41. Mastering display color pri : Display P3
  42. Mastering display luminance : min: 0.0050 cd/m2, max: 1000 cd/m2
  43. Maximum Content Light Level : 999 cd/m2
  44. Maximum Frame-Average Light : 125 cd/m2
  45.  
  46. Audio #1
  47. ID                          : 2
  48. Format                      : AC-3
  49. Format/Info                 : Audio Coding 3
  50. Commercial name             : Dolby Digital
  51. Codec ID                    : A_AC3
  52. Duration                    : 1 h 56 min
  53. Bit rate mode               : Constant
  54. Bit rate                    : 640 kb/s
  55. Channel(s)                  : 6 channels
  56. Channel layout              : L R C LFE Ls Rs
  57. Sampling rate               : 48.0 kHz
  58. Frame rate                  : 31.250 FPS (1536 SPF)
  59. Bit depth                   : 16 bits
  60. Compression mode            : Lossy
  61. Stream size                 : 532 MiB (1%)
  62. Title                       : Dub [License]
  63. Language                    : Russian
  64. Service kind                : Complete Main
  65. Default                     : Yes
  66. Forced                      : Yes
  67.  
  68. Audio #2
  69. ID                          : 3
  70. Format                      : MLP FBA 16-ch
  71. Format/Info                 : Meridian Lossless Packing FBA with 16-channel presentation
  72. Commercial name             : Dolby TrueHD with Dolby Atmos
  73. Codec ID                    : A_TRUEHD
  74. Duration                    : 1 h 56 min
  75. Bit rate mode               : Variable
  76. Bit rate                    : 3 272 kb/s
  77. Maximum bit rate            : 5 664 kb/s
  78. Channel(s)                  : 8 channels
  79. Channel layout              : L R C LFE Ls Rs Lb Rb
  80. Sampling rate               : 48.0 kHz
  81. Frame rate                  : 1 200.000 FPS (40 SPF)
  82. Compression mode            : Lossless
  83. Stream size                 : 2.66 GiB (5%)
  84. Title                       : Original
  85. Language                    : English
  86. Default                     : No
  87. Forced                      : No
  88. Number of dynamic objects   : 11
  89. Bed channel count           : 1 channel
  90. Bed channel configuration   : LFE
  91.  
  92. Audio #3
  93. ID                          : 4
  94. Format                      : AC-3
  95. Format/Info                 : Audio Coding 3
  96. Commercial name             : Dolby Digital
  97. Codec ID                    : A_AC3
  98. Duration                    : 1 h 56 min
  99. Bit rate mode               : Constant
  100. Bit rate                    : 448 kb/s
  101. Channel(s)                  : 6 channels
  102. Channel layout              : L R C LFE Ls Rs
  103. Sampling rate               : 48.0 kHz
  104. Frame rate                  : 31.250 FPS (1536 SPF)
  105. Bit depth                   : 16 bits
  106. Compression mode            : Lossy
  107. Stream size                 : 372 MiB (1%)
  108. Language                    : English
  109. Service kind                : Complete Main
  110. Default                     : No
  111. Forced                      : No
  112.  
  113. Text #1
  114. ID                          : 5
  115. Format                      : UTF-8
  116. Codec ID                    : S_TEXT/UTF8
  117. Codec ID/Info               : UTF-8 Plain Text
  118. Duration                    : 1 h 55 min
  119. Bit rate                    : 0 b/s
  120. Count of elements           : 19
  121. Stream size                 : 559 Bytes (0%)
  122. Title                       : Forced
  123. Language                    : Russian
  124. Default                     : Yes
  125. Forced                      : Yes
  126.  
  127. Text #2
  128. ID                          : 6
  129. Format                      : UTF-8
  130. Codec ID                    : S_TEXT/UTF8
  131. Codec ID/Info               : UTF-8 Plain Text
  132. Duration                    : 1 h 47 min
  133. Bit rate                    : 13 b/s
  134. Count of elements           : 204
  135. Stream size                 : 10.3 KiB (0%)
  136. Title                       : songs
  137. Language                    : Russian
  138. Default                     : No
  139. Forced                      : No
  140.  
  141. Text #3
  142. ID                          : 7
  143. Format                      : UTF-8
  144. Codec ID                    : S_TEXT/UTF8
  145. Codec ID/Info               : UTF-8 Plain Text
  146. Duration                    : 1 h 55 min
  147. Bit rate                    : 93 b/s
  148. Count of elements           : 1641
  149. Stream size                 : 79.2 KiB (0%)
  150. Title                       : Full [License]
  151. Language                    : Russian
  152. Default                     : No
  153. Forced                      : No
  154.  
  155. Text #4
  156. ID                          : 8
  157. Format                      : UTF-8
  158. Codec ID                    : S_TEXT/UTF8
  159. Codec ID/Info               : UTF-8 Plain Text
  160. Duration                    : 1 h 51 min
  161. Bit rate                    : 107 b/s
  162. Count of elements           : 2093
  163. Stream size                 : 87.4 KiB (0%)
  164. Title                       : Full [FOCS]
  165. Language                    : Russian
  166. Default                     : No
  167. Forced                      : No
  168.  
  169. Text #5
  170. ID                          : 9
  171. Format                      : UTF-8
  172. Codec ID                    : S_TEXT/UTF8
  173. Codec ID/Info               : UTF-8 Plain Text
  174. Duration                    : 1 h 55 min
  175. Bit rate                    : 79 b/s
  176. Count of elements           : 2244
  177. Stream size                 : 67.1 KiB (0%)
  178. Title                       : Full
  179. Language                    : English
  180. Default                     : No
  181. Forced                      : No
  182.  
  183. Text #6
  184. ID                          : 10
  185. Format                      : UTF-8
  186. Codec ID                    : S_TEXT/UTF8
  187. Codec ID/Info               : UTF-8 Plain Text
  188. Duration                    : 1 h 55 min
  189. Bit rate                    : 86 b/s
  190. Count of elements           : 2439
  191. Stream size                 : 73.0 KiB (0%)
  192. Title                       : SDH
  193. Language                    : English
  194. Default                     : No
  195. Forced                      : No
  196.  
  197. Menu
  198. 00:00:00.000                : en:Chapter 01
  199. 00:06:16.668                : en:Chapter 02
  200. 00:11:19.679                : en:Chapter 03
  201. 00:16:13.097                : en:Chapter 04
  202. 00:21:28.287                : en:Chapter 05
  203. 00:27:04.540                : en:Chapter 06
  204. 00:33:31.885                : en:Chapter 07
  205. 00:38:55.083                : en:Chapter 08
  206. 00:45:53.250                : en:Chapter 09
  207. 00:48:17.061                : en:Chapter 10
  208. 00:56:24.339                : en:Chapter 11
  209. 01:03:47.490                : en:Chapter 12
  210. 01:09:16.486                : en:Chapter 13
  211. 01:14:17.078                : en:Chapter 14
  212. 01:19:04.615                : en:Chapter 15
  213. 01:24:10.587                : en:Chapter 16
  214. 01:31:51.923                : en:Chapter 17
  215. 01:36:00.588                : en:Chapter 18
  216. 01:40:03.247                : en:Chapter 19
  217. 01:46:51.947                : en:Chapter 20
RAW Paste Data
We use cookies for various purposes including analytics. By continuing to use Pastebin, you agree to our use of cookies as described in the Cookies Policy. OK, I Understand
 
Top