SHARE
TWEET

Untitled

GrabHD Feb 27th, 2020 94 Never
Not a member of Pastebin yet? Sign Up, it unlocks many cool features!
  1. x265 info: frame I: 1345, Avg QP:18.63 kb/s: 26922.30
  2. x265 info: frame P: 21368, Avg QP:19.67 kb/s: 20054.20
  3. x265 info: frame B: 112191, Avg QP:21.79 kb/s: 13636.53
  4. x265 info: Weighted P-Frames: Y:14.1% UV:10.2%
  5. x265 info: Weighted B-Frames: Y:13.2% UV:8.3%
  6. x265 info: consecutive B-frames: 8.7% 2.0% 5.5% 10.5% 10.2% 32.0% 7.4% 5.9% 5.8% 4.1% 8.1%
  7. x265 info: encoded 134904 frames in 233221.23s (0.58 fps), 14785.51 kb/s, Avg QP:21.42
  8.  
  9. General
  10. Unique ID : 170528872360962765882522744288907218434 (0x804AAA89DF2E4059ECC31E317D55CE02)
  11. Complete name : D:Download / Мамочка-маньячка-убийца (1994).mkv
  12. Format : Matroska
  13. Format version : Version 4
  14. File size : 10.9 GiB
  15. Duration : 1 h 33 min
  16. Overall bit rate : 16.6 Mb/s
  17. Movie name : Мамочка-маньячка-убийца / Serial Mom (1994)
  18. Encoded date : UTC 2020-02-26 08:02:18
  19. Writing application : mkvmerge v43.0.0 ('The Quartermaster') 64-bit
  20. Writing library : libebml v1.3.10 + libmatroska v1.5.2
  21. Cover : Yes
  22. Attachments : Cover
  23.  
  24. Video
  25. ID : 1
  26. Format : HEVC
  27. Format/Info : High Efficiency Video Coding
  28. Format profile : Main 10@L4.1@High
  29. Codec ID : V_MPEGH/ISO/HEVC
  30. Duration : 1 h 33 min
  31. Bit rate : 14.8 Mb/s
  32. Width : 1 920 pixels
  33. Height : 1 036 pixels
  34. Display aspect ratio : 1.85:1
  35. Frame rate mode : Constant
  36. Frame rate : 23.976 (24000/1001) FPS
  37. Color space : YUV
  38. Chroma subsampling : 4:2:0
  39. Bit depth : 10 bits
  40. Bits/(Pixel*Frame) : 0.310
  41. Stream size : 9.69 GiB (89%)
  42. Title : Serial Mom
  43. Writing library : x265 3.2+5-354901970679:[Windows][clang 8.0.1][64 bit] 10bit
  44. Encoding settings : cpuid=1111039 / frame-threads=9 / numa-pools=8 / wpp / no-pmode / no-pme / no-psnr / no-ssim / log-level=3 / input-csp=1 / input-res=1920x1036 / interlace=0 / total-frames=0 / level-idc=41 / high-tier=1 / uhd-bd=0 / ref=5 / allow-non-conformance / no-repeat-headers / annexb / aud / no-hrd / info / hash=0 / no-temporal-layers / open-gop / min-keyint=23 / keyint=240 / gop-lookahead=0 / bframes=10 / b-adapt=2 / b-pyramid / bframe-bias=0 / rc-lookahead=60 / lookahead-slices=1 / scenecut=40 / radl=0 / no-splice / no-intra-refresh / ctu=32 / min-cu-size=8 / rect / amp / max-tu-size=32 / tu-inter-depth=4 / tu-intra-depth=4 / limit-tu=0 / rdoq-level=2 / dynamic-rd=0.00 / no-ssim-rd / signhide / no-tskip / nr-intra=0 / nr-inter=0 / no-constrained-intra / no-strong-intra-smoothing / max-merge=5 / limit-refs=3 / limit-modes / me=3 / subme=7 / merange=57 / temporal-mvp / no-frame-dup / no-hme / weightp / weightb / no-analyze-src-pics / deblock=-3:-3 / no-sao / no-sao-non-deblock / rd=6 / selective-sao=0 / no-early-skip / no-rskip / no-fast-intra / no-tskip-fast / no-cu-lossless / no-b-intra / no-splitrd-skip / rdpenalty=0 / psy-rd=2.00 / psy-rdoq=1.00 / no-rd-refine / no-lossless / cbqpoffs=0 / crqpoffs=0 / rc=crf / crf=19.0 / qcomp=0.65 / qpstep=4 / stats-write=0 / stats-read=0 / vbv-maxrate=50000 / vbv-bufsize=50000 / vbv-init=0.9 / crf-max=30.0 / crf-min=0.0 / ipratio=1.40 / pbratio=1.30 / aq-mode=4 / aq-strength=1.00 / no-cutree / zone-count=0 / no-strict-cbr / qg-size=32 / no-rc-grain / qpmax=69 / qpmin=0 / no-const-vbv / sar=1 / overscan=0 / videoformat=5 / range=0 / colorprim=2 / transfer=2 / colormatrix=2 / chromaloc=0 / display-window=0 / cll=0,0 / min-luma=0 / max-luma=1023 / log2-max-poc-lsb=8 / vui-timing-info / vui-hrd-info / slices=1 / no-opt-qp-pps / no-opt-ref-list-length-pps / no-multi-pass-opt-rps / scenecut-bias=0.05 / no-opt-cu-delta-qp / no-aq-motion / no-hdr / no-hdr-opt / no-dhdr10-opt / no-idr-recovery-sei / analysis-reuse-level=5 / scale-factor=0 / refine-intra=0 / refine-inter=0 / refine-mv=1 / refine-ctu-distortion=0 / no-limit-sao / ctu-info=0 / no-lowpass-dct / refine-analysis-type=0 / copy-pic=1 / max-ausize-factor=1.0 / no-dynamic-refine / no-single-sei / no-hevc-aq / no-svt / no-field / qp-adaptation-range=2.00
  45. Language : English
  46. Default : Yes
  47. Forced : No
  48. Color range : Limited
  49.  
  50. Audio #1
  51. ID : 2
  52. Format : AC-3
  53. Format/Info : Audio Coding 3
  54. Commercial name : Dolby Digital
  55. Codec ID : A_AC3
  56. Duration : 1 h 33 min
  57. Bit rate mode : Constant
  58. Bit rate : 448 kb/s
  59. Channel(s) : 2 channels
  60. Channel layout : L R
  61. Sampling rate : 48.0 kHz
  62. Frame rate : 31.250 FPS (1536 SPF)
  63. Compression mode : Lossy
  64. Stream size : 300 MiB (3%)
  65. Title : MVO (НТВ+)
  66. Language : Russian
  67. Service kind : Complete Main
  68. Default : Yes
  69. Forced : No
  70.  
  71. Audio #2
  72. ID : 3
  73. Format : AC-3
  74. Format/Info : Audio Coding 3
  75. Commercial name : Dolby Digital
  76. Codec ID : A_AC3
  77. Duration : 1 h 33 min
  78. Bit rate mode : Constant
  79. Bit rate : 192 kb/s
  80. Channel(s) : 2 channels
  81. Channel layout : L R
  82. Sampling rate : 48.0 kHz
  83. Frame rate : 31.250 FPS (1536 SPF)
  84. Compression mode : Lossy
  85. Stream size : 129 MiB (1%)
  86. Title : DVO (НТВ)
  87. Language : Russian
  88. Service kind : Complete Main
  89. Default : No
  90. Forced : No
  91.  
  92. Audio #3
  93. ID : 4
  94. Format : AC-3
  95. Format/Info : Audio Coding 3
  96. Commercial name : Dolby Digital
  97. Codec ID : A_AC3
  98. Duration : 1 h 33 min
  99. Bit rate mode : Constant
  100. Bit rate : 192 kb/s
  101. Channel(s) : 2 channels
  102. Channel layout : L R
  103. Sampling rate : 48.0 kHz
  104. Frame rate : 31.250 FPS (1536 SPF)
  105. Compression mode : Lossy
  106. Stream size : 129 MiB (1%)
  107. Title : DVO (Студия NLS)
  108. Language : Russian
  109. Service kind : Complete Main
  110. Default : No
  111. Forced : No
  112.  
  113. Audio #4
  114. ID : 5
  115. Format : AC-3
  116. Format/Info : Audio Coding 3
  117. Commercial name : Dolby Digital
  118. Codec ID : A_AC3
  119. Duration : 1 h 33 min
  120. Bit rate mode : Constant
  121. Bit rate : 192 kb/s
  122. Channel(s) : 2 channels
  123. Channel layout : L R
  124. Sampling rate : 48.0 kHz
  125. Frame rate : 31.250 FPS (1536 SPF)
  126. Compression mode : Lossy
  127. Stream size : 129 MiB (1%)
  128. Title : AVO (П. Санаев)
  129. Language : Russian
  130. Service kind : Complete Main
  131. Default : No
  132. Forced : No
  133.  
  134. Audio #5
  135. ID : 6
  136. Format : AC-3
  137. Format/Info : Audio Coding 3
  138. Commercial name : Dolby Digital
  139. Codec ID : A_AC3
  140. Duration : 1 h 31 min
  141. Bit rate mode : Constant
  142. Bit rate : 192 kb/s
  143. Channel(s) : 2 channels
  144. Channel layout : L R
  145. Sampling rate : 48.0 kHz
  146. Frame rate : 31.250 FPS (1536 SPF)
  147. Compression mode : Lossy
  148. Stream size : 125 MiB (1%)
  149. Title : AVO (В. Дохалов)
  150. Language : Russian
  151. Service kind : Complete Main
  152. Default : No
  153. Forced : No
  154.  
  155. Audio #6
  156. ID : 7
  157. Format : AC-3
  158. Format/Info : Audio Coding 3
  159. Commercial name : Dolby Digital
  160. Codec ID : A_AC3
  161. Duration : 1 h 33 min
  162. Bit rate mode : Constant
  163. Bit rate : 640 kb/s
  164. Channel(s) : 6 channels
  165. Channel layout : L R C LFE Ls Rs
  166. Sampling rate : 48.0 kHz
  167. Frame rate : 31.250 FPS (1536 SPF)
  168. Compression mode : Lossy
  169. Stream size : 429 MiB (4%)
  170. Title : Original
  171. Language : English
  172. Service kind : Complete Main
  173. Default : No
  174. Forced : No
  175.  
  176. Text #1
  177. ID : 8
  178. Format : UTF-8
  179. Codec ID : S_TEXT/UTF8
  180. Codec ID/Info : UTF-8 Plain Text
  181. Duration : 1 h 28 min
  182. Bit rate : 99 b/s
  183. Count of elements : 961
  184. Stream size : 64.5 KiB (0%)
  185. Title : Full
  186. Language : Russian
  187. Default : No
  188. Forced : No
  189.  
  190. Text #2
  191. ID : 9
  192. Format : UTF-8
  193. Codec ID : S_TEXT/UTF8
  194. Codec ID/Info : UTF-8 Plain Text
  195. Duration : 1 h 26 min
  196. Bit rate : 67 b/s
  197. Count of elements : 1348
  198. Stream size : 42.4 KiB (0%)
  199. Title : Full
  200. Language : English
  201. Default : No
  202. Forced : No
  203.  
  204. Menu
  205. 00:00:00.000 : :00:00:00.000
  206. 00:05:36.461 : :00:05:36.461
  207. 00:11:22.307 : :00:11:22.307
  208. 00:15:59.208 : :00:15:59.208
  209. 00:21:49.308 : :00:21:49.308
  210. 00:26:04.813 : :00:26:04.813
  211. 00:31:09.576 : :00:31:09.576
  212. 00:37:35.128 : :00:37:35.128
  213. 00:42:22.206 : :00:42:22.206
  214. 00:48:52.221 : :00:48:52.221
  215. 00:53:44.471 : :00:53:44.471
  216. 00:56:39.062 : :00:56:39.062
  217. 01:05:44.816 : :01:05:44.816
  218. 01:10:17.505 : :01:10:17.505
  219. 01:16:56.862 : :01:16:56.862
  220. 01:21:52.366 : :01:21:52.366
  221. 01:26:33.063 : :01:26:33.063
  222. 01:29:27.195 : :01:29:27.195
RAW Paste Data
We use cookies for various purposes including analytics. By continuing to use Pastebin, you agree to our use of cookies as described in the Cookies Policy. OK, I Understand
Top