Advertisement
yushiro

p.El Final de la Cuenta Atrás (1980)[BDRemux 1080p].yus

Feb 5th, 2021
254
0
Never
Not a member of Pastebin yet? Sign Up, it unlocks many cool features!
text 5.76 KB | None | 0 0
  1. General
  2. Unique ID : 202502350748908677026585543603373553076 (0x985888BB89E6578C5EB23A9F38DD35B4)
  3. Complete name : G:\El Final de la Cuenta Atrás (1980)[BDRemux 1080p].mkv
  4. Format : Matroska
  5. Format version : Version 4
  6. File size : 23.8 GiB
  7. Duration : 1 h 42 min
  8. Overall bit rate mode : Variable
  9. Overall bit rate : 33.2 Mb/s
  10. Encoded date : UTC 2021-02-05 03:12:37
  11. Writing application : mkvmerge v51.0.0 ('I Wish') 64-bit
  12. Writing library : libebml v1.4.0 + libmatroska v1.6.2
  13. IMDB : tt0080736
  14. TMDB : movie/8738
  15.  
  16. Video
  17. ID : 1
  18. Format : VC-1
  19. Format profile : Advanced@L3
  20. Codec ID : V_MS/VFW/FOURCC / WVC1
  21. Codec ID/Hint : Microsoft
  22. Duration : 1 h 42 min
  23. Bit rate : 27.9 Mb/s
  24. Width : 1 920 pixels
  25. Height : 1 080 pixels
  26. Display aspect ratio : 16:9
  27. Frame rate mode : Constant
  28. Frame rate : 23.976 (24000/1001) FPS
  29. Color space : YUV
  30. Chroma subsampling : 4:2:0
  31. Bit depth : 8 bits
  32. Scan type : Progressive
  33. Compression mode : Lossy
  34. Bits/(Pixel*Frame) : 0.562
  35. Stream size : 20.0 GiB (84%)
  36. Title : El Final de la Cuenta Atrás (1980)[BDRemux 1080p]
  37. Language : Spanish
  38. Default : Yes
  39. Forced : No
  40.  
  41. Audio #1
  42. ID : 2
  43. Format : AC-3
  44. Format/Info : Audio Coding 3
  45. Commercial name : Dolby Digital
  46. Codec ID : A_AC3
  47. Duration : 1 h 42 min
  48. Bit rate mode : Constant
  49. Bit rate : 448 kb/s
  50. Channel(s) : 2 channels
  51. Channel layout : L R
  52. Sampling rate : 48.0 kHz
  53. Frame rate : 31.250 FPS (1536 SPF)
  54. Compression mode : Lossy
  55. Stream size : 329 MiB (1%)
  56. Title : Castellano AC3 2.0 Stéreo 448 kbs
  57. Language : Spanish
  58. Service kind : Complete Main
  59. Default : Yes
  60. Forced : No
  61.  
  62. Audio #2
  63. ID : 3
  64. Format : DTS XLL
  65. Format/Info : Digital Theater Systems
  66. Commercial name : DTS-HD Master Audio
  67. Codec ID : A_DTS
  68. Duration : 1 h 42 min
  69. Bit rate mode : Variable
  70. Bit rate : 4 745 kb/s
  71. Channel(s) : 8 channels
  72. Channel layout : C L R LFE Lb Rb Lss Rss
  73. Sampling rate : 48.0 kHz
  74. Frame rate : 93.750 FPS (512 SPF)
  75. Bit depth : 24 bits
  76. Compression mode : Lossless
  77. Stream size : 3.40 GiB (14%)
  78. Title : Inglés DTS-HD M
  79. Language : English
  80. Default : No
  81. Forced : No
  82.  
  83. Text #1
  84. ID : 4
  85. Format : UTF-8
  86. Codec ID : S_TEXT/UTF8
  87. Codec ID/Info : UTF-8 Plain Text
  88. Duration : 1 h 38 min
  89. Bit rate : 51 b/s
  90. Count of elements : 974
  91. Stream size : 37.5 KiB (0%)
  92. Title : Castellano
  93. Language : Spanish
  94. Default : Yes
  95. Forced : No
  96.  
  97. Text #2
  98. ID : 5
  99. Format : PGS
  100. Muxing mode : zlib
  101. Codec ID : S_HDMV/PGS
  102. Codec ID/Info : Picture based subtitle format used on BDs/HD-DVDs
  103. Duration : 1 h 38 min
  104. Bit rate : 55.3 kb/s
  105. Count of elements : 2072
  106. Stream size : 39.2 MiB (0%)
  107. Title : SDH
  108. Language : English
  109. Default : No
  110. Forced : No
  111.  
  112. Text #3
  113. ID : 6
  114. Format : PGS
  115. Muxing mode : zlib
  116. Codec ID : S_HDMV/PGS
  117. Codec ID/Info : Picture based subtitle format used on BDs/HD-DVDs
  118. Duration : 1 h 38 min
  119. Bit rate : 45.4 kb/s
  120. Count of elements : 1952
  121. Stream size : 32.1 MiB (0%)
  122. Title : Latin American
  123. Language : Spanish
  124. Default : No
  125. Forced : No
  126.  
  127. Menu
  128. 00:00:00.000 : en:Chapter 1
  129. 00:06:57.125 : en:Chapter 2
  130. 00:10:52.110 : en:Chapter 3
  131. 00:15:12.495 : en:Chapter 4
  132. 00:19:47.603 : en:Chapter 5
  133. 00:23:25.738 : en:Chapter 6
  134. 00:30:14.896 : en:Chapter 7
  135. 00:33:43.480 : en:Chapter 8
  136. 00:37:37.755 : en:Chapter 9
  137. 00:42:36.345 : en:Chapter 10
  138. 00:47:14.790 : en:Chapter 11
  139. 00:51:47.980 : en:Chapter 12
  140. 00:56:46.903 : en:Chapter 13
  141. 01:00:11.733 : en:Chapter 14
  142. 01:04:07.427 : en:Chapter 15
  143. 01:12:58.708 : en:Chapter 16
  144. 01:17:37.194 : en:Chapter 17
  145. 01:21:29.593 : en:Chapter 18
  146. 01:24:20.889 : en:Chapter 19
  147. 01:29:56.975 : en:Chapter 20
  148. 01:34:05.765 : en:Chapter 21
  149. 01:39:52.820 : en:Chapter 22
  150.  
  151.  
Advertisement
Add Comment
Please, Sign In to add comment
Advertisement