Ledger Nano X - The secure hardware wallet
SHARE
TWEET

Untitled

GrabHD Feb 19th, 2020 72 Never
Not a member of Pastebin yet? Sign Up, it unlocks many cool features!
  1. General
  2. Unique ID : 233868623693022299602923670010872245824 (0xAFF17563073FB5049AF953636BC0AE40)
  3. Complete name : D:Panic Room (2002) Open Matte 1080p.mkv
  4. Format : Matroska
  5. Format version : Version 4
  6. File size : 10.1 GiB
  7. Duration : 1 h 52 min
  8. Overall bit rate mode : Variable
  9. Overall bit rate : 13.0 Mb/s
  10. Movie name : Panic.Room.2002.Open.Matte.1080p.WEB-DL.DD+5.1.H.264-spartanec163
  11. Encoded date : UTC 2020-02-18 18:25:14
  12. Writing application : mkvmerge v8.3.0 ('Over the Horizon') 32bit
  13. Writing library : libebml v1.3.1 + libmatroska v1.4.2
  14.  
  15. Video
  16. ID : 1
  17. Format : AVC
  18. Format/Info : Advanced Video Codec
  19. Format profile : High@L4
  20. Format settings : CABAC / 4 Ref Frames
  21. Format settings, CABAC : Yes
  22. Format settings, Reference : 4 frames
  23. Codec ID : V_MPEG4/ISO/AVC
  24. Duration : 1 h 52 min
  25. Bit rate mode : Variable
  26. Bit rate : 10.5 Mb/s
  27. Maximum bit rate : 15.0 Mb/s
  28. Width : 1 920 pixels
  29. Height : 1 080 pixels
  30. Display aspect ratio : 16:9
  31. Frame rate mode : Constant
  32. Frame rate : 23.976 (24000/1001) FPS
  33. Color space : YUV
  34. Chroma subsampling : 4:2:0
  35. Bit depth : 8 bits
  36. Scan type : Progressive
  37. Bits/(Pixel*Frame) : 0.212
  38. Stream size : 8.25 GiB (81%)
  39. Title : WEB-DL 1080p (Amazon)
  40. Language : English
  41. Default : Yes
  42. Forced : No
  43. Color range : Limited
  44. Color primaries : BT.709
  45. Transfer characteristics : BT.709
  46. Matrix coefficients : BT.709
  47.  
  48. Audio #1
  49. ID : 2
  50. Format : AC-3
  51. Format/Info : Audio Coding 3
  52. Commercial name : Dolby Digital
  53. Codec ID : A_AC3
  54. Duration : 1 h 52 min
  55. Bit rate mode : Constant
  56. Bit rate : 448 kb/s
  57. Channel(s) : 6 channels
  58. Channel layout : L R C LFE Ls Rs
  59. Sampling rate : 48.0 kHz
  60. Frame rate : 31.250 FPS (1536 SPF)
  61. Bit depth : 16 bits
  62. Compression mode : Lossy
  63. Stream size : 359 MiB (3%)
  64. Title : DUB
  65. Language : Russian
  66. Service kind : Complete Main
  67. Default : Yes
  68. Forced : No
  69.  
  70. Audio #2
  71. ID : 3
  72. Format : AC-3
  73. Format/Info : Audio Coding 3
  74. Commercial name : Dolby Digital
  75. Codec ID : A_AC3
  76. Duration : 1 h 52 min
  77. Bit rate mode : Constant
  78. Bit rate : 448 kb/s
  79. Channel(s) : 6 channels
  80. Channel layout : L R C LFE Ls Rs
  81. Sampling rate : 48.0 kHz
  82. Frame rate : 31.250 FPS (1536 SPF)
  83. Bit depth : 16 bits
  84. Compression mode : Lossy
  85. Stream size : 359 MiB (3%)
  86. Title : MVO Супербит
  87. Language : Russian
  88. Service kind : Complete Main
  89. Default : No
  90. Forced : No
  91.  
  92. Audio #3
  93. ID : 4
  94. Format : AC-3
  95. Format/Info : Audio Coding 3
  96. Commercial name : Dolby Digital
  97. Codec ID : A_AC3
  98. Duration : 1 h 52 min
  99. Bit rate mode : Constant
  100. Bit rate : 448 kb/s
  101. Channel(s) : 6 channels
  102. Channel layout : L R C LFE Ls Rs
  103. Sampling rate : 48.0 kHz
  104. Frame rate : 31.250 FPS (1536 SPF)
  105. Bit depth : 16 bits
  106. Compression mode : Lossy
  107. Stream size : 359 MiB (3%)
  108. Title : AVO Гаврилов
  109. Language : Russian
  110. Service kind : Complete Main
  111. Default : No
  112. Forced : No
  113.  
  114. Audio #4
  115. ID : 5
  116. Format : AC-3
  117. Format/Info : Audio Coding 3
  118. Commercial name : Dolby Digital
  119. Codec ID : A_AC3
  120. Duration : 1 h 52 min
  121. Bit rate mode : Constant
  122. Bit rate : 448 kb/s
  123. Channel(s) : 6 channels
  124. Channel layout : L R C LFE Ls Rs
  125. Sampling rate : 48.0 kHz
  126. Frame rate : 31.250 FPS (1536 SPF)
  127. Bit depth : 16 bits
  128. Compression mode : Lossy
  129. Stream size : 345 MiB (3%)
  130. Title : AVO Живов
  131. Language : Russian
  132. Service kind : Complete Main
  133. Default : No
  134. Forced : No
  135.  
  136. Audio #5
  137. ID : 6
  138. Format : E-AC-3
  139. Format/Info : Enhanced AC-3
  140. Commercial name : Dolby Digital Plus
  141. Codec ID : A_EAC3
  142. Duration : 1 h 52 min
  143. Bit rate mode : Constant
  144. Bit rate : 640 kb/s
  145. Channel(s) : 6 channels
  146. Channel layout : L R C LFE Ls Rs
  147. Sampling rate : 48.0 kHz
  148. Frame rate : 31.250 FPS (1536 SPF)
  149. Compression mode : Lossy
  150. Stream size : 513 MiB (5%)
  151. Language : English
  152. Service kind : Complete Main
  153. Default : No
  154. Forced : No
  155.  
  156. Text #1
  157. ID : 7
  158. Format : UTF-8
  159. Codec ID : S_TEXT/UTF8
  160. Codec ID/Info : UTF-8 Plain Text
  161. Duration : 1 h 46 min
  162. Bit rate : 62 b/s
  163. Count of elements : 987
  164. Stream size : 48.7 KiB (0%)
  165. Language : Russian
  166. Default : No
  167. Forced : No
  168.  
  169. Text #2
  170. ID : 8
  171. Format : UTF-8
  172. Codec ID : S_TEXT/UTF8
  173. Codec ID/Info : UTF-8 Plain Text
  174. Duration : 1 h 46 min
  175. Bit rate : 36 b/s
  176. Count of elements : 1061
  177. Stream size : 28.8 KiB (0%)
  178. Language : English
  179. Default : No
  180. Forced : No
RAW Paste Data
We use cookies for various purposes including analytics. By continuing to use Pastebin, you agree to our use of cookies as described in the Cookies Policy. OK, I Understand
Top