HYBRID_BEING

[Bit-&] Bakuon!! - 03.mkv

Jul 10th, 2016
80
Never
Not a member of Pastebin yet? Sign Up, it unlocks many cool features!
  1. General
  2. Unique ID : 91565231645381342676359718088728986774 (0x44E2D2785C5A69C5230ACFAE74C94496)
  3. Complete name : [Bit-&] Bakuon!! - 03.mkv
  4. Format : Matroska
  5. Format version : Version 4 / Version 2
  6. File size : 319 MiB
  7. Duration : 24 min
  8. Overall bit rate : 1 861 kb/s
  9. Movie name : Bakuon 03
  10. Encoded date : UTC 2016-04-20 00:36:59
  11. Writing application : mkvmerge v9.0.1 ('Obstacles') 64bit
  12. Writing library : libebml v1.3.3 + libmatroska v1.4.4
  13. Attachments : Eraser_0.ttf / Perspective Sans Bold_0.ttf / OpenSans-Bold_0.ttf / OpenSans-BoldItalic_0.ttf / OpenSans-ExtraBold_0.ttf / OpenSans-ExtraBoldItalic_0.ttf / OpenSans-Italic_0.ttf / OpenSans-Light_0.ttf / OpenSans-LightItalic_0.ttf / OpenSans-Regular_0.ttf / OpenSans-Semibold_0.ttf / OpenSans-SemiboldItalic_0.ttf / Bangers_0.ttf
  14.  
  15. Video
  16. ID : 2
  17. Format : AVC
  18. Format/Info : Advanced Video Codec
  19. Format profile : Main@L4.1
  20. Format settings, CABAC : Yes
  21. Format settings, ReFrames : 4 frames
  22. Codec ID : V_MPEG4/ISO/AVC
  23. Duration : 24 min
  24. Bit rate : 1 649 kb/s
  25. Width : 1 280 pixels
  26. Height : 720 pixels
  27. Display aspect ratio : 16:9
  28. Frame rate mode : Variable
  29. Frame rate : 23.976 (23976/1000) FPS
  30. Original frame rate : 23.976 (24000/1001) FPS
  31. Color space : YUV
  32. Chroma subsampling : 4:2:0
  33. Bit depth : 8 bits
  34. Scan type : Progressive
  35. Bits/(Pixel*Frame) : 0.075
  36. Stream size : 283 MiB (89%)
  37. Writing library : x264 core 148 r2692 64f4e24
  38. Encoding settings : cabac=1 / ref=3 / deblock=1:0:0 / analyse=0x1:0x111 / me=hex / subme=7 / psy=1 / psy_rd=1.00:0.00 / mixed_ref=1 / me_range=16 / chroma_me=1 / trellis=1 / 8x8dct=0 / cqm=0 / deadzone=21,11 / fast_pskip=1 / chroma_qp_offset=-2 / threads=12 / lookahead_threads=2 / sliced_threads=0 / nr=0 / decimate=1 / interlaced=0 / bluray_compat=0 / constrained_intra=0 / bframes=3 / b_pyramid=2 / b_adapt=1 / b_bias=0 / direct=1 / weightb=1 / open_gop=0 / weightp=2 / keyint=240 / keyint_min=1 / scenecut=40 / intra_refresh=0 / rc_lookahead=40 / rc=crf / mbtree=1 / crf=20.0 / qcomp=0.60 / qpmin=0 / qpmax=69 / qpstep=4 / ip_ratio=1.40 / aq=1:1.50
  39. Language : Japanese
  40. Default : Yes
  41. Forced : No
  42. Color range : Limited
  43. Color primaries : BT.709
  44. Transfer characteristics : BT.709
  45. Matrix coefficients : BT.709
  46.  
  47. Audio
  48. ID : 3
  49. Format : AAC
  50. Format/Info : Advanced Audio Codec
  51. Format profile : LC
  52. Codec ID : A_AAC
  53. Duration : 24 min
  54. Bit rate : 192 kb/s
  55. Channel(s) : 2 channels
  56. Channel positions : Front: L R
  57. Sampling rate : 48.0 kHz
  58. Frame rate : 46.875 FPS (1024 spf)
  59. Compression mode : Lossy
  60. Stream size : 33.6 MiB (11%)
  61. Title : Japanese
  62. Language : Japanese
  63. Default : Yes
  64. Forced : Yes
  65.  
  66. Text
  67. ID : 1
  68. Format : ASS
  69. Codec ID : S_TEXT/ASS
  70. Codec ID/Info : Advanced Sub Station Alpha
  71. Duration : 23 min
  72. Bit rate : 132 b/s
  73. Count of elements : 416
  74. Compression mode : Lossless
  75. Stream size : 23.0 KiB (0%)
  76. Title : Bit
  77. Language : English
  78. Default : Yes
  79. Forced : Yes
  80.  
  81. Menu
  82. 00:00:00.000 : :Intro
  83. 00:00:14.000 : :Opening
  84. 00:01:54.000 : :Part 1
  85. 00:03:53.700 : :Part 2
  86. 00:08:45.000 : :Part 3
  87. 00:09:17.000 : :Part 4
  88. 00:11:15.000 : :THAT YAMAHA
  89. 00:11:19.000 : :Part 5
  90. 00:16:53.000 : :Part 6
  91. 00:22:10.000 : :Ending
  92. 00:23:40.000 : :Jikai
RAW Paste Data