GrabHD

Untitled

Mar 1st, 2020
94
Never
Not a member of Pastebin yet? Sign Up, it unlocks many cool features!
  1. General
  2. Unique ID : 99196271877615662565883794225568419852 (0x4AA081CD3F2ECBE46FE427AED600100C)
  3. Complete name : F:Legend (2015) WEB-DL 1080p Open Matte.mkv
  4. Format : Matroska
  5. Format version : Version 4
  6. File size : 12.5 GiB
  7. Duration : 2 h 11 min
  8. Overall bit rate : 13.5 Mb/s
  9. Encoded date : UTC 2019-07-17 11:40:01
  10. Writing application : mkvmerge v35.0.0 ('All The Love In The World') 64-bit
  11. Writing library : libebml v1.3.9 + libmatroska v1.5.2
  12.  
  13. Video
  14. ID : 1
  15. Format : AVC
  16. Format/Info : Advanced Video Codec
  17. Format profile : High@L4
  18. Format settings : CABAC / 4 Ref Frames
  19. Format settings, CABAC : Yes
  20. Format settings, Reference : 4 frames
  21. Codec ID : V_MPEG4/ISO/AVC
  22. Duration : 2 h 11 min
  23. Bit rate mode : Constant
  24. Bit rate : 9 300 kb/s
  25. Nominal bit rate : 10 000 kb/s
  26. Width : 1 920 pixels
  27. Height : 1 080 pixels
  28. Display aspect ratio : 16:9
  29. Frame rate mode : Constant
  30. Frame rate : 24.000 FPS
  31. Color space : YUV
  32. Chroma subsampling : 4:2:0
  33. Bit depth : 8 bits
  34. Scan type : Progressive
  35. Bits/(Pixel*Frame) : 0.187
  36. Stream size : 8.56 GiB (69%)
  37. Default : Yes
  38. Forced : No
  39. Color range : Limited
  40. Color primaries : BT.709
  41. Transfer characteristics : BT.709
  42. Matrix coefficients : BT.709
  43.  
  44. Audio #1
  45. ID : 2
  46. Format : DTS
  47. Format/Info : Digital Theater Systems
  48. Codec ID : A_DTS
  49. Duration : 2 h 11 min
  50. Bit rate mode : Constant
  51. Bit rate : 1 509 kb/s
  52. Channel(s) : 6 channels
  53. Channel layout : C L R Ls Rs LFE
  54. Sampling rate : 48.0 kHz
  55. Frame rate : 93.750 FPS (512 SPF)
  56. Bit depth : 24 bits
  57. Compression mode : Lossy
  58. Stream size : 1.39 GiB (11%)
  59. Title : Дубляж
  60. Language : Russian
  61. Default : Yes
  62. Forced : No
  63.  
  64. Audio #2
  65. ID : 3
  66. Format : DTS
  67. Format/Info : Digital Theater Systems
  68. Codec ID : A_DTS
  69. Duration : 2 h 11 min
  70. Bit rate mode : Constant
  71. Bit rate : 768 kb/s
  72. Channel(s) : 6 channels
  73. Channel layout : C L R Ls Rs LFE
  74. Sampling rate : 48.0 kHz
  75. Frame rate : 93.750 FPS (512 SPF)
  76. Bit depth : 24 bits
  77. Compression mode : Lossy
  78. Stream size : 722 MiB (6%)
  79. Title : Ю.Сербин
  80. Language : Russian
  81. Default : No
  82. Forced : No
  83.  
  84. Audio #3
  85. ID : 4
  86. Format : AC-3
  87. Format/Info : Audio Coding 3
  88. Commercial name : Dolby Digital
  89. Codec ID : A_AC3
  90. Duration : 2 h 11 min
  91. Bit rate mode : Constant
  92. Bit rate : 448 kb/s
  93. Channel(s) : 6 channels
  94. Channel layout : L R C LFE Ls Rs
  95. Sampling rate : 48.0 kHz
  96. Frame rate : 31.250 FPS (1536 SPF)
  97. Bit depth : 16 bits
  98. Compression mode : Lossy
  99. Stream size : 421 MiB (3%)
  100. Title : Яроцкий
  101. Language : Russian
  102. Service kind : Complete Main
  103. Default : No
  104. Forced : No
  105.  
  106. Audio #4
  107. ID : 5
  108. Format : DTS
  109. Format/Info : Digital Theater Systems
  110. Codec ID : A_DTS
  111. Duration : 2 h 11 min
  112. Bit rate mode : Constant
  113. Bit rate : 1 509 kb/s
  114. Channel(s) : 6 channels
  115. Channel layout : C L R Ls Rs LFE
  116. Sampling rate : 48.0 kHz
  117. Frame rate : 93.750 FPS (512 SPF)
  118. Bit depth : 24 bits
  119. Compression mode : Lossy
  120. Stream size : 1.39 GiB (11%)
  121. Language : English
  122. Default : No
  123. Forced : No
  124.  
  125. Text #1
  126. ID : 6
  127. Format : UTF-8
  128. Codec ID : S_TEXT/UTF8
  129. Codec ID/Info : UTF-8 Plain Text
  130. Duration : 2 h 7 min
  131. Bit rate : 80 b/s
  132. Count of elements : 2111
  133. Stream size : 74.6 KiB (0%)
  134. Language : English
  135. Default : No
  136. Forced : No
  137.  
  138. Text #2
  139. ID : 7
  140. Format : UTF-8
  141. Codec ID : S_TEXT/UTF8
  142. Codec ID/Info : UTF-8 Plain Text
  143. Duration : 2 h 7 min
  144. Bit rate : 76 b/s
  145. Count of elements : 1998
  146. Stream size : 71.0 KiB (0%)
  147. Language : English
  148. Default : No
  149. Forced : No
RAW Paste Data