Henry_Kr

VS-S01

Jul 9th, 2021
40
Never
Not a member of Pastebin yet? Sign Up, it unlocks many cool features!
  1. Video
  2. ID : 1
  3. Format : AVC
  4. Format/Info : Advanced Video Codec
  5. Format profile : High@L4.1
  6. Format settings : CABAC / 4 Ref Frames
  7. Format settings, CABAC : Yes
  8. Format settings, Reference : 4 frames
  9. Muxing mode : Header stripping
  10. Codec ID : V_MPEG4/ISO/AVC
  11. Duration : 28 min 26 s
  12. Bit rate : 9 000 kb/s
  13. Width : 1 920 pixels
  14. Height : 1 080 pixels
  15. Display aspect ratio : 16:9
  16. Frame rate mode : Constant
  17. Frame rate : 23.976 (24000/1001) FPS
  18. Color space : YUV
  19. Chroma subsampling : 4:2:0
  20. Bit depth : 8 bits
  21. Scan type : Progressive
  22. Bits/(Pixel*Frame) : 0.181
  23. Stream size : 1.75 GiB (82%)
  24. Title : Vinland.Saga.S01E01.Qualquer.Lugar.Menos.Aqui.1080p.BluRay.[CartoonNOW]
  25. Writing library : x264 core 157 r2935 545de2f
  26. Encoding settings : cabac=1 / ref=3 / deblock=1:0:0 / analyse=0x3:0x113 / me=hex / subme=7 / psy=1 / psy_rd=1.00:0.00 / mixed_ref=1 / me_range=16 / chroma_me=1 / trellis=1 / 8x8dct=1 / cqm=0 / deadzone=21,11 / fast_pskip=1 / chroma_qp_offset=-2 / threads=24 / lookahead_threads=4 / sliced_threads=0 / nr=0 / decimate=1 / interlaced=0 / bluray_compat=0 / constrained_intra=0 / bframes=3 / b_pyramid=2 / b_adapt=1 / b_bias=0 / direct=1 / weightb=1 / open_gop=0 / weightp=2 / keyint=240 / keyint_min=24 / scenecut=40 / intra_refresh=0 / rc_lookahead=40 / rc=2pass / mbtree=1 / bitrate=9000 / ratetol=1.0 / qcomp=0.60 / qpmin=0 / qpmax=69 / qpstep=4 / cplxblur=20.0 / qblur=0.5 / vbv_maxrate=62500 / vbv_bufsize=78125 / nal_hrd=none / filler=0 / ip_ratio=1.40 / aq=1:1.00
  27. Language : Japanese
  28. Default : Yes
  29. Forced : No
  30. Color range : Limited
  31. Color primaries : BT.709
  32. Transfer characteristics : BT.709
  33. Matrix coefficients : BT.709
  34.  
  35. Audio #1
  36. ID : 2
  37. Format : AC-3
  38. Format/Info : Audio Coding 3
  39. Commercial name : Dolby Digital
  40. Muxing mode : Header stripping
  41. Codec ID : A_AC3
  42. Duration : 28 min 26 s
  43. Bit rate mode : Constant
  44. Bit rate : 192 kb/s
  45. Channel(s) : 2 channels
  46. Channel layout : L R
  47. Sampling rate : 48.0 kHz
  48. Frame rate : 31.250 FPS (1536 SPF)
  49. Compression mode : Lossy
  50. Stream size : 39.1 MiB (2%)
  51. Title : AC3 2.0
  52. Language : Portuguese
  53. Service kind : Complete Main
  54. Default : Yes
  55. Forced : No
  56.  
  57. Audio #2
  58. ID : 3
  59. Format : DTS
  60. Format/Info : Digital Theater Systems
  61. Muxing mode : Header stripping
  62. Codec ID : A_DTS
  63. Duration : 28 min 26 s
  64. Bit rate mode : Constant
  65. Bit rate : 1 509 kb/s
  66. Channel(s) : 2 channels
  67. Channel layout : L R
  68. Sampling rate : 48.0 kHz
  69. Frame rate : 93.750 FPS (512 SPF)
  70. Bit depth : 24 bits
  71. Compression mode : Lossy
  72. Stream size : 307 MiB (14%)
  73. Title : DTS 2.0
  74. Language : Japanese
  75. Default : No
  76. Forced : No
  77.  
  78. Text #1
  79. ID : 4
  80. Format : ASS
  81. Codec ID : S_TEXT/ASS
  82. Codec ID/Info : Advanced Sub Station Alpha
  83. Compression mode : Lossless
  84. Title : Forçada
  85. Language : Portuguese
  86. Default : No
  87. Forced : Yes
  88.  
  89. Text #2
  90. ID : 5
  91. Format : ASS
  92. Codec ID : S_TEXT/ASS
  93. Codec ID/Info : Advanced Sub Station Alpha
  94. Compression mode : Lossless
  95. Title : Completa
  96. Language : Portuguese
  97. Default : No
  98. Forced : No
  99.  
  100. Menu
  101. 00:00:00.000 : en:(01)00:00:00:000
  102. 00:03:58.029 : en:(02)00:03:58:029
  103. 00:05:31.039 : en:(03)00:05:31:039
  104. 00:14:11.016 : en:(04)00:14:11:016
  105. 00:26:56.072 : en:(05)00:26:56:072
RAW Paste Data