SHARE
TWEET

Untitled

a guest Nov 14th, 2019 138 Never
Not a member of Pastebin yet? Sign Up, it unlocks many cool features!
  1. General
  2. ID                                       : 0 (0x0)
  3. Complete name                            : 00009.m2ts
  4. Format                                   : BDAV
  5. Format/Info                              : Blu-ray Video
  6. File size                                : 42.4 GiB
  7. Duration                                 : 2 h 57 min
  8. Overall bit rate mode                    : Variable
  9. Overall bit rate                         : 34.1 Mb/s
  10. Maximum Overall bit rate                 : 48.0 Mb/s
  11.  
  12. Video
  13. ID                                       : 4113 (0x1011)
  14. Menu ID                                  : 1 (0x1)
  15. Format                                   : AVC
  16. Format/Info                              : Advanced Video Codec
  17. Format profile                           : High@L4.1
  18. Format settings                          : CABAC / 4 Ref Frames
  19. Format settings, CABAC                   : Yes
  20. Format settings, Reference frames        : 4 frames
  21. Codec ID                                 : 27
  22. Duration                                 : 2 h 57 min
  23. Bit rate mode                            : Variable
  24. Maximum bit rate                         : 34.0 Mb/s
  25. Width                                    : 1 920 pixels
  26. Height                                   : 1 080 pixels
  27. Display aspect ratio                     : 16:9
  28. Frame rate                               : 24.000 FPS
  29. Standard                                 : NTSC
  30. Color space                              : YUV
  31. Chroma subsampling                       : 4:2:0
  32. Bit depth                                : 8 bits
  33. Scan type                                : Progressive
  34. Color range                              : Limited
  35. Color primaries                          : BT.709
  36. Transfer characteristics                 : BT.709
  37. Matrix coefficients                      : BT.709
  38.  
  39. Audio #1
  40. ID                                       : 4352 (0x1100)
  41. Menu ID                                  : 1 (0x1)
  42. Format                                   : AC-3
  43. Format/Info                              : Audio Coding 3
  44. Commercial name                          : Dolby Digital
  45. Codec ID                                 : 129
  46. Duration                                 : 2 h 57 min
  47. Bit rate mode                            : Constant
  48. Bit rate                                 : 224 kb/s
  49. Channel(s)                               : 2 channels
  50. Channel layout                           : L R
  51. Sampling rate                            : 48.0 kHz
  52. Frame rate                               : 31.250 FPS (1536 SPF)
  53. Compression mode                         : Lossy
  54. Stream size                              : 285 MiB (1%)
  55. Service kind                             : Complete Main
  56.  
  57. Audio #2
  58. ID                                       : 4353 (0x1101)
  59. Menu ID                                  : 1 (0x1)
  60. Format                                   : DTS XLL
  61. Format/Info                              : Digital Theater Systems
  62. Commercial name                          : DTS-HD Master Audio
  63. Muxing mode                              : Stream extension
  64. Codec ID                                 : 134
  65. Duration                                 : 2 h 57 min
  66. Bit rate mode                            : Variable
  67. Channel(s)                               : 6 channels
  68. Channel layout                           : C L R Ls Rs LFE
  69. Sampling rate                            : 48.0 kHz
  70. Frame rate                               : 93.750 FPS (512 SPF)
  71. Bit depth                                : 16 bits
  72. Compression mode                         : Lossless
  73.  
  74. Audio #3
  75. ID                                       : 4354 (0x1102)
  76. Menu ID                                  : 1 (0x1)
  77. Format                                   : DTS XLL
  78. Format/Info                              : Digital Theater Systems
  79. Commercial name                          : DTS-HD Master Audio
  80. Muxing mode                              : Stream extension
  81. Codec ID                                 : 134
  82. Duration                                 : 2 h 57 min
  83. Bit rate mode                            : Variable
  84. Channel(s)                               : 6 channels
  85. Channel layout                           : C L R Ls Rs LFE
  86. Sampling rate                            : 48.0 kHz
  87. Frame rate                               : 93.750 FPS (512 SPF)
  88. Bit depth                                : 16 bits
  89. Compression mode                         : Lossless
  90.  
  91. Audio #4
  92. ID                                       : 4355 (0x1103)
  93. Menu ID                                  : 1 (0x1)
  94. Format                                   : AC-3
  95. Format/Info                              : Audio Coding 3
  96. Commercial name                          : Dolby Digital
  97. Codec ID                                 : 129
  98. Duration                                 : 2 h 57 min
  99. Bit rate mode                            : Constant
  100. Bit rate                                 : 224 kb/s
  101. Channel(s)                               : 2 channels
  102. Channel layout                           : L R
  103. Sampling rate                            : 48.0 kHz
  104. Frame rate                               : 31.250 FPS (1536 SPF)
  105. Compression mode                         : Lossy
  106. Stream size                              : 285 MiB (1%)
  107. Service kind                             : Complete Main
  108.  
  109. Text #1
  110. ID                                       : 4608 (0x1200)
  111. Menu ID                                  : 1 (0x1)
  112. Format                                   : PGS
  113. Codec ID                                 : 144
  114.  
  115. Text #2
  116. ID                                       : 4609 (0x1201)
  117. Menu ID                                  : 1 (0x1)
  118. Format                                   : PGS
  119. Codec ID                                 : 144
  120.  
  121. Text #3
  122. ID                                       : 4610 (0x1202)
  123. Menu ID                                  : 1 (0x1)
  124. Format                                   : PGS
  125. Codec ID                                 : 144
RAW Paste Data
We use cookies for various purposes including analytics. By continuing to use Pastebin, you agree to our use of cookies as described in the Cookies Policy. OK, I Understand
 
Top