SHARE
TWEET

Untitled

a guest Jun 12th, 2019 70 Never
Not a member of Pastebin yet? Sign Up, it unlocks many cool features!
  1. Общее
  2. Уникальный идентификатор                 : 173463151374632534682874487993972346222 (0x827FC9A9DAA71AC6B765C13EFB38CD6E)
  3. Полное имя                               : D:\Downloads\sourse\Vopreki.S01.2017.AniStar.BDRip.1080p.Deadmauvlad\Vopreki.S01.2017.AniStar.BDRip.1080p.Deadmauvlad.Ep.01.mkv
  4. Формат                                   : Matroska
  5. Версия формата                           : Version 2
  6. Размер файла                             : 1,41 Гбайт
  7. Продолжительность                        : 23 м. 42 с.
  8. Режим общего битрейта                    : Переменный
  9. Общий поток                              : 8492 Кбит/сек
  10. Название фильма                          : Urahara S01 BDRip 1080p Encoder by Moozzi2 Reliz Deadmauvlad
  11. Дата кодирования                         : UTC 2019-06-11 15:26:34
  12. Программа кодирования                    : mkvmerge v6.9.1 ('Blue Panther') 32bit built on Apr 18 2014 18:15:44
  13. Библиотека кодирования                   : libebml v1.3.0 + libmatroska v1.4.1
  14.  
  15. Видео
  16. Идентификатор                            : 1
  17. Формат                                   : AVC
  18. Формат/Информация                        : Advanced Video Codec
  19. Профиль формата                          : High@L5
  20. Настройки формата                        : CABAC / 5 Ref Frames
  21. Параметр CABAC формата                   : Да
  22. Параметр RefFrames формата               : 5 кадров
  23. Идентификатор кодека                     : V_MPEG4/ISO/AVC
  24. Продолжительность                        : 23 м. 42 с.
  25. Ширина                                   : 1920 пикселей
  26. Высота                                   : 1080 пикселей
  27. Соотношение сторон                       : 16:9
  28. Режим частоты кадров                     : Постоянный
  29. Частота кадров                           : 23,976 (24000/1001) кадра/сек
  30. Цветовое пространство                    : YUV
  31. Субдискретизация насыщенности            : 4:2:0
  32. Битовая глубина                          : 8 бит
  33. Тип развёртки                            : Прогрессивная
  34. Библиотека кодирования                   : x264 core 157 r2935 545de2f
  35. Настройки программы                      : cabac=1 / ref=5 / deblock=1:1:1 / analyse=0x3:0x113 / me=umh / subme=9 / psy=1 / psy_rd=1.00:0.00 / mixed_ref=1 / me_range=32 / chroma_me=1 / trellis=1 / 8x8dct=1 / cqm=0 / deadzone=21,11 / fast_pskip=0 / chroma_qp_offset=-2 / threads=34 / lookahead_threads=2 / sliced_threads=0 / nr=0 / decimate=1 / interlaced=0 / bluray_compat=0 / stitchable=1 / constrained_intra=0 / bframes=3 / b_pyramid=2 / b_adapt=2 / b_bias=0 / direct=1 / weightb=1 / open_gop=0 / weightp=1 / keyint=240 / keyint_min=23 / scenecut=40 / intra_refresh=0 / rc_lookahead=40 / rc=crf / mbtree=1 / crf=16.0 / qcomp=0.65 / qpmin=0 / qpmax=69 / qpstep=4 / ip_ratio=1.40 / aq=1:1.00
  36. Язык                                     : Japanese
  37. Default                                  : Да
  38. Forced                                   : Нет
  39. Statistics Tags Issue                    : mkvmerge v28.2.0 ('The Awakening') 64-bit 2019-05-10 06:29:29 / mkvmerge v6.9.1 ('Blue Panther') 32bit built on Apr 18 2014 18:15:44 2019-06-11 15:26:34
  40. FromStats_BitRate                        : 6890057
  41. FromStats_Duration                       : 00:23:42.088000000
  42. FromStats_FrameCount                     : 34096
  43. FromStats_StreamSize                     : 1224783455
  44.  
  45. Аудио #1
  46. Идентификатор                            : 2
  47. Формат                                   : AC-3
  48. Формат/Информация                        : Audio Coding 3
  49. Коммерческое название                    : Dolby Digital
  50. Идентификатор кодека                     : A_AC3
  51. Продолжительность                        : 23 м. 42 с.
  52. Вид битрейта                             : Постоянный
  53. Битрейт                                  : 192 Кбит/сек
  54. Каналы                                   : 2 канала
  55. Channel layout                           : L R
  56. Частота                                  : 48,0 КГц
  57. Частота кадров                           : 31,250 кадров/сек (1536 SPF)
  58. Битовая глубина                          : 16 бит
  59. Метод сжатия                             : С потерями
  60. Размер потока                            : 32,5 Мбайт (2%)
  61. Заголовок                                : Anistar (Mensh)
  62. Язык                                     : Russian
  63. ServiceKind/String                       : Complete Main
  64. Default                                  : Да
  65. Forced                                   : Да
  66.  
  67. Аудио #2
  68. Идентификатор                            : 3
  69. Формат                                   : FLAC
  70. Формат/Информация                        : Free Lossless Audio Codec
  71. Идентификатор кодека                     : A_FLAC
  72. Продолжительность                        : 23 м. 42 с.
  73. Вид битрейта                             : Переменный
  74. Каналы                                   : 2 канала
  75. Channel layout                           : L R
  76. Частота                                  : 48,0 КГц
  77. Битовая глубина                          : 24 бит
  78. Метод сжатия                             : Без потерь
  79. Заголовок                                : Оригинал
  80. Библиотека кодирования                   : libFLAC 1.3.2 (UTC 2017-01-01)
  81. Язык                                     : Japanese
  82. Default                                  : Нет
  83. Forced                                   : Нет
  84. Statistics Tags Issue                    : mkvmerge v28.2.0 ('The Awakening') 64-bit 2019-05-10 06:29:29 / mkvmerge v6.9.1 ('Blue Panther') 32bit built on Apr 18 2014 18:15:44 2019-06-11 15:26:34
  85. FromStats_BitRate                        : 1407515
  86. FromStats_Duration                       : 00:23:42.090000000
  87. FromStats_FrameCount                     : 16666
  88. FromStats_StreamSize                     : 250201660
  89.  
  90. Текст
  91. Идентификатор                            : 4
  92. Формат                                   : ASS
  93. Идентификатор кодека                     : S_TEXT/ASS
  94. Идентификатор кодека/Информация          : Advanced Sub Station Alpha
  95. Метод сжатия                             : Без потерь
  96. Заголовок                                : Русские (полные) Перевод: Team Shirome
  97. Язык                                     : Russian
  98. Default                                  : Да
  99. Forced                                   : Нет
  100.  
  101. Общее
  102. Уникальный идентификатор                 : 204176357592794769554543022884369658825 (0x999AEFA467F600259A78D9C2C6CAF3C9)
  103. Полное имя                               : D:\Downloads\sourse\Vopreki.S01.2017.AniStar.BDRip.1080p.Deadmauvlad\Vopreki.S01.2017.AniStar.BDRip.1080p.Deadmauvlad.Ep.12.mkv
  104. Формат                                   : Matroska
  105. Версия формата                           : Version 2
  106. Размер файла                             : 1,62 Гбайт
  107. Продолжительность                        : 23 м. 42 с.
  108. Режим общего битрейта                    : Переменный
  109. Общий поток                              : 9791 Кбит/сек
  110. Название фильма                          : Urahara S01 BDRip 1080p Encoder by Moozzi2 Reliz Deadmauvlad
  111. Дата кодирования                         : UTC 2019-06-11 16:14:44
  112. Программа кодирования                    : mkvmerge v6.9.1 ('Blue Panther') 32bit built on Apr 18 2014 18:15:44
  113. Библиотека кодирования                   : libebml v1.3.0 + libmatroska v1.4.1
  114.  
  115. Видео
  116. Идентификатор                            : 1
  117. Формат                                   : AVC
  118. Формат/Информация                        : Advanced Video Codec
  119. Профиль формата                          : High@L5
  120. Настройки формата                        : CABAC / 5 Ref Frames
  121. Параметр CABAC формата                   : Да
  122. Параметр RefFrames формата               : 5 кадров
  123. Идентификатор кодека                     : V_MPEG4/ISO/AVC
  124. Продолжительность                        : 23 м. 42 с.
  125. Ширина                                   : 1920 пикселей
  126. Высота                                   : 1080 пикселей
  127. Соотношение сторон                       : 16:9
  128. Режим частоты кадров                     : Постоянный
  129. Частота кадров                           : 23,976 (24000/1001) кадра/сек
  130. Цветовое пространство                    : YUV
  131. Субдискретизация насыщенности            : 4:2:0
  132. Битовая глубина                          : 8 бит
  133. Тип развёртки                            : Прогрессивная
  134. Библиотека кодирования                   : x264 core 157 r2935 545de2f
  135. Настройки программы                      : cabac=1 / ref=5 / deblock=1:1:1 / analyse=0x3:0x113 / me=umh / subme=9 / psy=1 / psy_rd=1.00:0.00 / mixed_ref=1 / me_range=32 / chroma_me=1 / trellis=1 / 8x8dct=1 / cqm=0 / deadzone=21,11 / fast_pskip=0 / chroma_qp_offset=-2 / threads=34 / lookahead_threads=2 / sliced_threads=0 / nr=0 / decimate=1 / interlaced=0 / bluray_compat=0 / stitchable=1 / constrained_intra=0 / bframes=3 / b_pyramid=2 / b_adapt=2 / b_bias=0 / direct=1 / weightb=1 / open_gop=0 / weightp=1 / keyint=240 / keyint_min=23 / scenecut=40 / intra_refresh=0 / rc_lookahead=40 / rc=crf / mbtree=1 / crf=16.0 / qcomp=0.65 / qpmin=0 / qpmax=69 / qpstep=4 / ip_ratio=1.40 / aq=1:1.00
  136. Язык                                     : Japanese
  137. Default                                  : Да
  138. Forced                                   : Нет
  139. Statistics Tags Issue                    : mkvmerge v28.2.0 ('The Awakening') 64-bit 2019-05-10 06:27:34 / mkvmerge v6.9.1 ('Blue Panther') 32bit built on Apr 18 2014 18:15:44 2019-06-11 16:14:44
  140. FromStats_BitRate                        : 6903883
  141. FromStats_Duration                       : 00:23:42.088000000
  142. FromStats_FrameCount                     : 34096
  143. FromStats_StreamSize                     : 1227241263
  144.  
  145. Аудио #1
  146. Идентификатор                            : 2
  147. Формат                                   : AC-3
  148. Формат/Информация                        : Audio Coding 3
  149. Коммерческое название                    : Dolby Digital
  150. Идентификатор кодека                     : A_AC3
  151. Продолжительность                        : 23 м. 42 с.
  152. Вид битрейта                             : Постоянный
  153. Битрейт                                  : 192 Кбит/сек
  154. Каналы                                   : 2 канала
  155. Channel layout                           : L R
  156. Частота                                  : 48,0 КГц
  157. Частота кадров                           : 31,250 кадров/сек (1536 SPF)
  158. Битовая глубина                          : 16 бит
  159. Метод сжатия                             : С потерями
  160. Размер потока                            : 32,5 Мбайт (2%)
  161. Заголовок                                : Озвучка Mutsuko Air
  162. Язык                                     : Russian
  163. ServiceKind/String                       : Complete Main
  164. Default                                  : Нет
  165. Forced                                   : Нет
  166.  
  167. Аудио #2
  168. Идентификатор                            : 4
  169. Формат                                   : FLAC
  170. Формат/Информация                        : Free Lossless Audio Codec
  171. Идентификатор кодека                     : A_FLAC
  172. Продолжительность                        : 23 м. 42 с.
  173. Вид битрейта                             : Переменный
  174. Каналы                                   : 2 канала
  175. Channel layout                           : L R
  176. Частота                                  : 48,0 КГц
  177. Битовая глубина                          : 24 бит
  178. Метод сжатия                             : Без потерь
  179. Библиотека кодирования                   : libFLAC 1.3.2 (UTC 2017-01-01)
  180. Язык                                     : Japanese
  181. Default                                  : Да
  182. Forced                                   : Нет
  183. Statistics Tags Issue                    : mkvmerge v28.2.0 ('The Awakening') 64-bit 2019-05-10 06:27:34 / mkvmerge v6.9.1 ('Blue Panther') 32bit built on Apr 18 2014 18:15:44 2019-06-11 16:14:44
  184. FromStats_BitRate                        : 1426271
  185. FromStats_Duration                       : 00:23:42.090000000
  186. FromStats_FrameCount                     : 16666
  187. FromStats_StreamSize                     : 253535812
  188.  
  189. Аудио #3
  190. Идентификатор                            : 5
  191. Формат                                   : FLAC
  192. Формат/Информация                        : Free Lossless Audio Codec
  193. Идентификатор кодека                     : A_FLAC
  194. Продолжительность                        : 23 м. 42 с.
  195. Вид битрейта                             : Переменный
  196. Каналы                                   : 2 канала
  197. Channel layout                           : L R
  198. Частота                                  : 48,0 КГц
  199. Битовая глубина                          : 24 бит
  200. Метод сжатия                             : Без потерь
  201. Библиотека кодирования                   : libFLAC 1.3.2 (UTC 2017-01-01)
  202. Язык                                     : Japanese
  203. Default                                  : Нет
  204. Forced                                   : Нет
  205. Statistics Tags Issue                    : mkvmerge v28.2.0 ('The Awakening') 64-bit 2019-05-10 06:27:34 / mkvmerge v6.9.1 ('Blue Panther') 32bit built on Apr 18 2014 18:15:44 2019-06-11 16:14:44
  206. FromStats_BitRate                        : 1266209
  207. FromStats_Duration                       : 00:23:42.090000000
  208. FromStats_FrameCount                     : 16666
  209. FromStats_StreamSize                     : 225082922
  210.  
  211. Текст
  212. Идентификатор                            : 3
  213. Формат                                   : ASS
  214. Идентификатор кодека                     : S_TEXT/ASS
  215. Идентификатор кодека/Информация          : Advanced Sub Station Alpha
  216. Метод сжатия                             : Без потерь
  217. Заголовок                                : Русские (полные) Перевод: Team Shirome
  218. Язык                                     : Russian
  219. Default                                  : Да
  220. Forced                                   : Нет
RAW Paste Data
We use cookies for various purposes including analytics. By continuing to use Pastebin, you agree to our use of cookies as described in the Cookies Policy. OK, I Understand
 
Top