SHARE
TWEET

The Wandering Earth WEB-DL 720p

dirtyharrys May 1st, 2019 88 Never
Not a member of Pastebin yet? Sign Up, it unlocks many cool features!
  1. General
  2. Unique ID                   : 290425642218720935100377732338926876664 (0xDA7DF1B0522409E137B38ECDF759F7F8)
  3. Complete name               : E:\V0VCVGhlV2FuZGVyaW5nRWFydGg.mkv
  4. Format                      : Matroska
  5. Format version              : Version 4
  6. File size                   : 1.99 GiB
  7. Duration                    : 2 h 5 min
  8. Overall bit rate            : 2 270 kb/s
  9. Movie name                  : The Wandering Earth WEB-DL / The Wandering Earth WEB-DL
  10. Encoded date                : UTC 2019-05-01 08:39:29
  11. Writing application         : mkvmerge v30.1.0 ('Forever And More') 32-bit
  12. Writing library             : libebml v1.3.6 + libmatroska v1.4.9
  13. Copyright                   : Movies HDs 2019
  14. ARTIST                      : HarshLearner
  15.  
  16. Video
  17. ID                          : 1
  18. Format                      : AVC
  19. Format/Info                 : Advanced Video Codec
  20. Format profile              : High@L4.1
  21. Format settings             : CABAC / 4 Ref Frames
  22. Format settings, CABAC      : Yes
  23. Format settings, ReFrames   : 4 frames
  24. Codec ID                    : V_MPEG4/ISO/AVC
  25. Duration                    : 2 h 5 min
  26. Bit rate                    : 1 500 kb/s
  27. Width                       : 1 280 pixels
  28. Height                      : 720 pixels
  29. Display aspect ratio        : 16:9
  30. Frame rate mode             : Constant
  31. Frame rate                  : 24.000 FPS
  32. Color space                 : YUV
  33. Chroma subsampling          : 4:2:0
  34. Bit depth                   : 8 bits
  35. Scan type                   : Progressive
  36. Bits/(Pixel*Frame)          : 0.068
  37. Stream size                 : 1.31 GiB (66%)
  38. Title                       : The Wandering Earth
  39. Writing library             : x264 core 155 r2901 7d0ff22
  40. Default                     : Yes
  41. Forced                      : No
  42. Color range                 : Limited
  43. Color primaries             : BT.709
  44. Transfer characteristics    : BT.709
  45. Matrix coefficients         : BT.709
  46.  
  47. Audio #1
  48. ID                          : 2
  49. Format                      : AC-3
  50. Format/Info                 : Audio Coding 3
  51. Commercial name             : Dolby Digital
  52. Codec ID                    : A_AC3
  53. Duration                    : 2 h 5 min
  54. Bit rate mode               : Constant
  55. Bit rate                    : 384 kb/s
  56. Channel(s)                  : 6 channels
  57. Channel layout              : L R C LFE Ls Rs
  58. Sampling rate               : 48.0 kHz
  59. Frame rate                  : 31.250 FPS (1536 SPF)
  60. Bit depth                   : 16 bits
  61. Compression mode            : Lossy
  62. Stream size                 : 345 MiB (17%)
  63. Language                    : Chinese
  64. Service kind                : Complete Main
  65. Default                     : No
  66. Forced                      : No
  67.  
  68. Audio #2
  69. ID                          : 3
  70. Format                      : AC-3
  71. Format/Info                 : Audio Coding 3
  72. Commercial name             : Dolby Digital
  73. Codec ID                    : A_AC3
  74. Duration                    : 2 h 5 min
  75. Bit rate mode               : Constant
  76. Bit rate                    : 384 kb/s
  77. Channel(s)                  : 6 channels
  78. Channel layout              : L R C LFE Ls Rs
  79. Sampling rate               : 48.0 kHz
  80. Frame rate                  : 31.250 FPS (1536 SPF)
  81. Bit depth                   : 16 bits
  82. Compression mode            : Lossy
  83. Delay relative to video     : -5 ms
  84. Stream size                 : 345 MiB (17%)
  85. Language                    : Spanish
  86. Service kind                : Complete Main
  87. Default                     : Yes
  88. Forced                      : Yes
  89.  
  90. Text #1
  91. ID                          : 4
  92. Format                      : UTF-8
  93. Codec ID                    : S_TEXT/UTF8
  94. Codec ID/Info               : UTF-8 Plain Text
  95. Duration                    : 1 h 58 min
  96. Bit rate                    : 54 b/s
  97. Count of elements           : 1654
  98. Stream size                 : 47.4 KiB (0%)
  99. Language                    : English
  100. Default                     : No
  101. Forced                      : No
  102.  
  103. Text #2
  104. ID                          : 5
  105. Format                      : UTF-8
  106. Codec ID                    : S_TEXT/UTF8
  107. Codec ID/Info               : UTF-8 Plain Text
  108. Duration                    : 2 h 4 min
  109. Bit rate                    : 56 b/s
  110. Count of elements           : 1789
  111. Stream size                 : 51.4 KiB (0%)
  112. Language                    : Spanish
  113. Default                     : Yes
  114. Forced                      : Yes
  115.  
  116. Text #3
  117. ID                          : 6
  118. Format                      : UTF-8
  119. Codec ID                    : S_TEXT/UTF8
  120. Codec ID/Info               : UTF-8 Plain Text
  121. Duration                    : 2 h 4 min
  122. Bit rate                    : 9 b/s
  123. Count of elements           : 293
  124. Stream size                 : 8.70 KiB (0%)
  125. Language                    : Spanish
  126. Default                     : No
  127. Forced                      : No
  128.  
  129. Menu
  130. 00:00:00.000                : :Capítulo 01
  131. 00:05:00.000                : :Capítulo 02
  132. 00:10:00.000                : :Capítulo 03
  133. 00:15:00.000                : :Capítulo 04
  134. 00:20:00.000                : :Capítulo 05
  135. 00:25:00.000                : :Capítulo 06
  136. 00:30:00.000                : :Capítulo 07
  137. 00:35:00.000                : :Capítulo 08
  138. 00:40:00.000                : :Capítulo 09
  139. 00:45:00.000                : :Capítulo 10
  140. 00:50:00.000                : :Capítulo 11
  141. 00:55:00.000                : :Capítulo 12
  142. 01:00:00.000                : :Capítulo 13
  143. 01:05:00.000                : :Capítulo 14
  144. 01:10:00.000                : :Capítulo 15
  145. 01:15:00.000                : :Capítulo 16
  146. 01:20:00.000                : :Capítulo 17
  147. 01:25:00.000                : :Capítulo 18
  148. 01:30:00.000                : :Capítulo 19
  149. 01:35:00.000                : :Capítulo 20
  150. 01:40:00.000                : :Capítulo 21
  151. 01:45:00.000                : :Capítulo 22
  152. 01:50:00.000                : :Capítulo 23
  153. 01:55:00.000                : :Capítulo 24
  154. 02:00:00.000                : :Capítulo 25
  155. 02:05:00.000                : :Capítulo 26
RAW Paste Data
We use cookies for various purposes including analytics. By continuing to use Pastebin, you agree to our use of cookies as described in the Cookies Policy. OK, I Understand
 
Top