SHARE
TWEET

Untitled

a guest Feb 11th, 2015 3 Never
Not a member of Pastebin yet? Sign Up, it unlocks many cool features!
  1. ffmpeg -i "title03.mkv" -map 0
  2. :v -map 0:a:1 -map 0:s -vf scale=640:480 -filter_complex "[0:v] [0:s]overlay[v]"
  3.  -c:v libx264 -b:v 1M -c:a copy -threads 4 "InuYasha S01E01.mkv"
  4. ffmpeg version N-69672-g078be09 Copyright (c) 2000-2015 the FFmpeg developers
  5.   built with gcc 4.9.2 (GCC)
  6.   configuration: --enable-gpl --enable-version3 --disable-w32threads --enable-av
  7. isynth --enable-bzlib --enable-fontconfig --enable-frei0r --enable-gnutls --enab
  8. le-iconv --enable-libass --enable-libbluray --enable-libbs2b --enable-libcaca --
  9. enable-libfreetype --enable-libgme --enable-libgsm --enable-libilbc --enable-lib
  10. modplug --enable-libmp3lame --enable-libopencore-amrnb --enable-libopencore-amrw
  11. b --enable-libopenjpeg --enable-libopus --enable-librtmp --enable-libschroedinge
  12. r --enable-libsoxr --enable-libspeex --enable-libtheora --enable-libtwolame --en
  13. able-libvidstab --enable-libvo-aacenc --enable-libvo-amrwbenc --enable-libvorbis
  14.  --enable-libvpx --enable-libwavpack --enable-libwebp --enable-libx264 --enable-
  15. libx265 --enable-libxavs --enable-libxvid --enable-lzma --enable-decklink --enab
  16. le-zlib
  17.   libavutil      54. 18.100 / 54. 18.100
  18.   libavcodec     56. 21.102 / 56. 21.102
  19.   libavformat    56. 19.100 / 56. 19.100
  20.   libavdevice    56.  4.100 / 56.  4.100
  21.   libavfilter     5.  9.104 /  5.  9.104
  22.   libswscale      3.  1.101 /  3.  1.101
  23.   libswresample   1.  1.100 /  1.  1.100
  24.   libpostproc    53.  3.100 / 53.  3.100
  25. Input #0, matroska,webm, from 'title03.mkv':
  26.   Metadata:
  27.     encoder         : libmakemkv v1.9.1 (1.3.0/1.4.1) win(x64-release)
  28.     creation_time   : 2015-02-11 04:30:08
  29.   Duration: 00:24:15.19, start: 0.000000, bitrate: 6555 kb/s
  30.     Chapter #0:0: start 0.000000, end 95.428667
  31.     Metadata:
  32.       title           : Chapter 01
  33.     Chapter #0:1: start 95.428667, end 908.307400
  34.     Metadata:
  35.       title           : Chapter 02
  36.     Chapter #0:2: start 908.307400, end 1329.928600
  37.     Metadata:
  38.       title           : Chapter 03
  39.     Chapter #0:3: start 1329.928600, end 1425.357267
  40.     Metadata:
  41.       title           : Chapter 04
  42.     Chapter #0:4: start 1425.357267, end 1455.187067
  43.     Metadata:
  44.       title           : Chapter 05
  45.     Stream #0:0(eng): Video: mpeg2video (Main), yuv420p(tv, smpte170m), 720x480
  46. [SAR 8:9 DAR 4:3], max. 8500 kb/s, 29.97 fps, 29.97 tbr, 1k tbn, 59.94 tbc
  47.     Stream #0:1(eng): Audio: ac3, 48000 Hz, stereo, fltp, 224 kb/s (default)
  48.     Metadata:
  49.       title           : Stereo
  50.     Stream #0:2(jpn): Audio: ac3, 48000 Hz, stereo, fltp, 224 kb/s
  51.     Metadata:
  52.       title           : Stereo
  53.     Stream #0:3(eng): Subtitle: dvd_subtitle, 720x480 (default)
  54. File 'InuYasha S01E01.mkv' already exists. Overwrite ? [y/N] y
  55. Output pad "default" with type video of the filter instance "Parsed_overlay_0" o
  56. f overlay not connected to any destination
RAW Paste Data
We use cookies for various purposes including analytics. By continuing to use Pastebin, you agree to our use of cookies as described in the Cookies Policy. OK, I Understand
 
Top