GrabHD

Untitled

Feb 25th, 2020
144
Never
Not a member of Pastebin yet? Sign Up, it unlocks many cool features!
  1. Общее
  2. Уникальный идентификатор : 163246629854231445223150630629727743595 (0x7AD0284337A88AB2A1D0662ABC732E6B)
  3. Полное имя : R:Inglourious Basterds (2009) BDRip 1080p.mkv
  4. Формат : Matroska
  5. Версия формата : Version 4 / Version 2
  6. Размер файла : 7,60 Гбайт
  7. Продолжительность : 2 ч. 46 м.
  8. Общий поток : 6526 Кбит/сек
  9. Название фильма : Inglourious Basterds (2009)
  10. Дата кодирования : UTC 2020-02-22 08:16:51
  11. Программа кодирования : mkvmerge v43.0.0 ('The Quartermaster') 64-bit
  12. Библиотека кодирования : libebml v1.3.10 + libmatroska v1.5.2
  13. Обложка : Yes
  14. Attachments : cover.jpg
  15.  
  16. Видео
  17. Идентификатор : 1
  18. Формат : HEVC
  19. Формат/Информация : High Efficiency Video Coding
  20. Профиль формата : Main 10@L4.1@High
  21. Идентификатор кодека : V_MPEGH/ISO/HEVC
  22. Продолжительность : 2 ч. 32 м.
  23. Битрейт : 5833 Кбит/сек
  24. Ширина : 1920 пикселей
  25. Высота : 800 пикселей
  26. Соотношение сторон : 2,40:1
  27. Режим частоты кадров : Постоянный
  28. Частота кадров : 23,976 (24000/1001) кадра/сек
  29. Цветовое пространство : YUV
  30. Субдискретизация насыщенности : 4:2:0
  31. Битовая глубина : 10 бит
  32. Бит/(Пиксели*Кадры) : 0.158
  33. Размер потока : 6,23 Гбайт (82%)
  34. Библиотека кодирования : x265 3.2.1+1-b5c86a64bbbe:[Windows][MSVC 1923][64 bit] 10bit
  35. Настройки программы : cpuid=1111039 / frame-threads=3 / numa-pools=12 / wpp / no-pmode / no-pme / no-psnr / no-ssim / log-level=2 / input-csp=1 / input-res=1920x800 / interlace=0 / total-frames=215089 / level-idc=41 / high-tier=1 / uhd-bd=0 / ref=5 / no-allow-non-conformance / no-repeat-headers / annexb / no-aud / no-hrd / info / hash=0 / no-temporal-layers / open-gop / min-keyint=23 / keyint=240 / gop-lookahead=0 / bframes=16 / b-adapt=2 / b-pyramid / bframe-bias=0 / rc-lookahead=60 / lookahead-slices=4 / scenecut=40 / radl=0 / no-splice / no-intra-refresh / ctu=32 / min-cu-size=8 / rect / amp / max-tu-size=32 / tu-inter-depth=4 / tu-intra-depth=4 / limit-tu=1 / rdoq-level=2 / dynamic-rd=0.00 / no-ssim-rd / signhide / no-tskip / nr-intra=0 / nr-inter=0 / no-constrained-intra / no-strong-intra-smoothing / max-merge=4 / limit-refs=2 / limit-modes / me=3 / subme=7 / merange=57 / temporal-mvp / no-hme / weightp / weightb / no-analyze-src-pics / deblock=-3:-3 / no-sao / no-sao-non-deblock / rd=6 / selective-sao=0 / no-early-skip / no-rskip / no-fast-intra / no-tskip-fast / no-cu-lossless / no-b-intra / no-splitrd-skip / rdpenalty=0 / psy-rd=2.00 / psy-rdoq=1.00 / no-rd-refine / no-lossless / cbqpoffs=0 / crqpoffs=0 / rc=crf / crf=20.0 / qcomp=0.65 / qpstep=4 / stats-write=0 / stats-read=0 / vbv-maxrate=50000 / vbv-bufsize=50000 / vbv-init=0.9 / crf-max=0.0 / crf-min=0.0 / ipratio=1.40 / pbratio=1.30 / aq-mode=1 / aq-strength=1.00 / no-cutree / zone-count=0 / no-strict-cbr / qg-size=32 / no-rc-grain / qpmax=69 / qpmin=0 / no-const-vbv / sar=1 / overscan=0 / videoformat=5 / range=0 / colorprim=1 / transfer=1 / colormatrix=1 / chromaloc=0 / display-window=0 / cll=0,0 / min-luma=0 / max-luma=1023 / log2-max-poc-lsb=8 / vui-timing-info / vui-hrd-info / slices=1 / no-opt-qp-pps / no-opt-ref-list-length-pps / no-multi-pass-opt-rps / scenecut-bias=0.05 / no-opt-cu-delta-qp / no-aq-motion / no-hdr / no-hdr-opt / no-dhdr10-opt / no-idr-recovery-sei / analysis-reuse-level=5 / scale-factor=0 / refine-intra=0 / refine-inter=0 / refine-mv=1 / refine-ctu-distortion=0 / no-limit-sao / ctu-info=0 / no-lowpass-dct / refine-analysis-type=0 / copy-pic=1 / max-ausize-factor=1.0 / no-dynamic-refine / no-single-sei / no-hevc-aq / no-svt / no-field / qp-adaptation-range=1.00
  36. Default : Да
  37. Forced : Нет
  38. Цветовой диапазон : Limited
  39. Основные цвета : BT.709
  40. Характеристики трансфера : BT.709
  41. Коэффициенты матрицы : BT.709
  42.  
  43. Аудио #1
  44. Идентификатор : 2
  45. Формат : AC-3
  46. Формат/Информация : Audio Coding 3
  47. Идентификатор кодека : A_AC3
  48. Продолжительность : 2 ч. 33 м.
  49. Вид битрейта : Постоянный
  50. Битрейт : 448 Кбит/сек
  51. Каналы : 6 каналов
  52. Расположение каналов : Front: L C R, Side: L R, LFE
  53. Частота : 48,0 КГц
  54. Частота кадров : 31,250 кадров/сек (1536 SPF)
  55. Битовая глубина : 16 бит
  56. Метод сжатия : С потерями
  57. Размер потока : 490 Мбайт (6%)
  58. Заголовок : Дубляж
  59. Язык : Russian
  60. ServiceKind/Strin : Complete Main
  61. Default : Да
  62. Forced : Нет
  63.  
  64. Аудио #2
  65. Идентификатор : 3
  66. Формат : AC-3
  67. Формат/Информация : Audio Coding 3
  68. Идентификатор кодека : A_AC3
  69. Продолжительность : 2 ч. 32 м.
  70. Вид битрейта : Постоянный
  71. Битрейт : 192 Кбит/сек
  72. Каналы : 2 канала
  73. Расположение каналов : Front: L R
  74. Частота : 48,0 КГц
  75. Частота кадров : 31,250 кадров/сек (1536 SPF)
  76. Битовая глубина : 16 бит
  77. Метод сжатия : С потерями
  78. Размер потока : 209 Мбайт (3%)
  79. Заголовок : Дубляж
  80. Язык : Ukrainian
  81. ServiceKind/Strin : Complete Main
  82. Default : Нет
  83. Forced : Нет
  84.  
  85. Аудио #3
  86. Идентификатор : 4
  87. Формат : AC-3
  88. Формат/Информация : Audio Coding 3
  89. Идентификатор кодека : A_AC3
  90. Продолжительность : 2 ч. 32 м.
  91. Вид битрейта : Постоянный
  92. Битрейт : 640 Кбит/сек
  93. Каналы : 6 каналов
  94. Расположение каналов : Front: L C R, Side: L R, LFE
  95. Частота : 48,0 КГц
  96. Частота кадров : 31,250 кадров/сек (1536 SPF)
  97. Битовая глубина : 16 бит
  98. Метод сжатия : С потерями
  99. Размер потока : 700 Мбайт (9%)
  100. Заголовок : Original
  101. Язык : English
  102. ServiceKind/Strin : Complete Main
  103. Default : Нет
  104. Forced : Нет
  105.  
  106. Текст #1
  107. Идентификатор : 5
  108. Формат : UTF-8
  109. Идентификатор кодека : S_TEXT/UTF8
  110. Идентификатор кодека/Информация : UTF-8 Plain Text
  111. Продолжительность : 1 ч. 27 м.
  112. Битрейт : 0 бит/сек
  113. ElementCount : 19
  114. Размер потока : 485 байт (0%)
  115. Заголовок : Forced
  116. Язык : Russian
  117. Default : Да
  118. Forced : Да
  119.  
  120. Текст #2
  121. Идентификатор : 6
  122. Формат : UTF-8
  123. Идентификатор кодека : S_TEXT/UTF8
  124. Идентификатор кодека/Информация : UTF-8 Plain Text
  125. Продолжительность : 2 ч. 28 м.
  126. Битрейт : 109 бит/сек
  127. ElementCount : 1817
  128. Размер потока : 119 Кбайт (0%)
  129. Заголовок : Full
  130. Язык : Russian
  131. Default : Нет
  132. Forced : Нет
  133.  
  134. Текст #3
  135. Идентификатор : 7
  136. Формат : UTF-8
  137. Идентификатор кодека : S_TEXT/UTF8
  138. Идентификатор кодека/Информация : UTF-8 Plain Text
  139. Продолжительность : 2 ч. 27 м.
  140. Битрейт : 91 бит/сек
  141. ElementCount : 1810
  142. Размер потока : 98,6 Кбайт (0%)
  143. Заголовок : Full
  144. Язык : Ukrainian
  145. Default : Нет
  146. Forced : Нет
  147.  
  148. Текст #4
  149. Идентификатор : 8
  150. Формат : UTF-8
  151. Идентификатор кодека : S_TEXT/UTF8
  152. Идентификатор кодека/Информация : UTF-8 Plain Text
  153. Продолжительность : 2 ч. 44 м.
  154. Битрейт : 26 бит/сек
  155. ElementCount : 969
  156. Размер потока : 32,1 Кбайт (0%)
  157. Заголовок : Forced
  158. Язык : English
  159. Default : Нет
  160. Forced : Нет
  161.  
  162. Текст #5
  163. Идентификатор : 9
  164. Формат : UTF-8
  165. Идентификатор кодека : S_TEXT/UTF8
  166. Идентификатор кодека/Информация : UTF-8 Plain Text
  167. Продолжительность : 2 ч. 27 м.
  168. Битрейт : 60 бит/сек
  169. ElementCount : 1811
  170. Размер потока : 65,5 Кбайт (0%)
  171. Заголовок : Full
  172. Язык : English
  173. Default : Нет
  174. Forced : Нет
  175.  
  176. Текст #6
  177. Идентификатор : 10
  178. Формат : UTF-8
  179. Идентификатор кодека : S_TEXT/UTF8
  180. Идентификатор кодека/Информация : UTF-8 Plain Text
  181. Продолжительность : 2 ч. 27 м.
  182. Битрейт : 44 бит/сек
  183. ElementCount : 1179
  184. Размер потока : 48,3 Кбайт (0%)
  185. Заголовок : SDH-Colored
  186. Язык : English
  187. Default : Нет
  188. Forced : Нет
  189.  
  190. Меню
  191. 00:00:00.000 : :(01)00:00:00:000
  192. 00:01:50.610 : :(02)00:01:50:610
  193. 00:07:06.384 : :(03)00:07:06:384
  194. 00:21:20.820 : :(04)00:21:20:820
  195. 00:24:12.826 : :(05)00:24:12:826
  196. 00:28:15.902 : :(06)00:28:15:902
  197. 00:30:18.942 : :(07)00:30:18:942
  198. 00:37:57.108 : :(08)00:37:57:108
  199. 00:41:47.922 : :(09)00:41:47:922
  200. 00:48:28.405 : :(10)00:48:28:405
  201. 00:53:53.563 : :(11)00:53:53:563
  202. 01:00:50.438 : :(12)01:00:50:438
  203. 01:04:05.341 : :(13)01:04:05:341
  204. 01:09:24.702 : :(14)01:09:24:702
  205. 01:12:17.166 : :(15)01:12:17:166
  206. 01:19:25.927 : :(16)01:19:25:927
  207. 01:32:54.777 : :(17)01:32:54:777
  208. 01:37:02.233 : :(18)01:37:02:233
  209. 01:43:51.475 : :(19)01:43:51:475
  210. 01:45:38.040 : :(20)01:45:38:040
  211. 01:50:30.623 : :(21)01:50:30:623
  212. 01:57:35.089 : :(22)01:57:35:089
  213. 02:03:38.452 : :(23)02:03:38:452
  214. 02:10:30.072 : :(24)02:10:30:072
  215. 02:16:40.859 : :(25)02:16:40:859
  216. 02:23:10.748 : :(26)02:23:10:748
  217. 02:25:47.280 : :(27)02:25:47:280
  218. 02:29:30.960 : :(28)02:29:30:960
  219. 02:32:51.912 : :(29)02:32:51:912
RAW Paste Data