Advertisement
yushiro

p.Timetrap (2017) [DVDRip][AC3 5.1 Castellano].yus

Jan 17th, 2021
92
0
Never
Not a member of Pastebin yet? Sign Up, it unlocks many cool features!
text 2.17 KB | None | 0 0
  1. General
  2. Complete name : G:\Timetrap (2017) [DVDRip][AC3 5.1 Castellano].avi
  3. Format : AVI
  4. Format/Info : Audio Video Interleave
  5. File size : 1.16 GiB
  6. Duration : 1 h 27 min
  7. Overall bit rate : 1 900 kb/s
  8. Writing application : VirtualDubMod 1.5.10.2 (build 2540/release)
  9. Writing library : VirtualDubMod build 2540/release
  10.  
  11. Video
  12. ID : 0
  13. Format : MPEG-4 Visual
  14. Format profile : Advanced Simple@L5
  15. Format settings : BVOP2
  16. Format settings, BVOP : 2
  17. Format settings, QPel : No
  18. Format settings, GMC : No warppoints
  19. Format settings, Matrix : Default (H.263)
  20. Codec ID : XVID
  21. Codec ID/Hint : XviD
  22. Duration : 1 h 27 min
  23. Bit rate : 1 698 kb/s
  24. Width : 720 pixels
  25. Height : 304 pixels
  26. Display aspect ratio : 2.35:1
  27. Frame rate : 23.976 (24000/1001) FPS
  28. Color space : YUV
  29. Chroma subsampling : 4:2:0
  30. Bit depth : 8 bits
  31. Scan type : Progressive
  32. Compression mode : Lossy
  33. Bits/(Pixel*Frame) : 0.324
  34. Stream size : 1.04 GiB (89%)
  35. Writing library : XviD 1.2.1 (UTC 2008-12-04)
  36.  
  37. Audio
  38. ID : 1
  39. Format : AC-3
  40. Format/Info : Audio Coding 3
  41. Commercial name : Dolby Digital
  42. Codec ID : 2000
  43. Duration : 1 h 27 min
  44. Bit rate mode : Constant
  45. Bit rate : 192 kb/s
  46. Channel(s) : 2 channels
  47. Channel layout : L R
  48. Sampling rate : 48.0 kHz
  49. Frame rate : 31.250 FPS (1536 SPF)
  50. Compression mode : Lossy
  51. Stream size : 120 MiB (10%)
  52. Alignment : Split across interleaves
  53. Interleave, duration : 42 ms (1.00 video frame)
  54. Interleave, preload duratio : 500 ms
  55. Service kind : Complete Main
  56.  
  57.  
Advertisement
Add Comment
Please, Sign In to add comment
Advertisement