HYBRID_BEING

[Scum] Made in Abyss - 04 [WEB][6D0FF13A].mkv

Aug 31st, 2017
417
Never
Not a member of Pastebin yet? Sign Up, it unlocks many cool features!
  1. General
  2. Unique ID : 253754328165464795766870159837963668245 (0xBEE74E5053632C51A5060127B7BACB15)
  3. Complete name : [Scum] Made in Abyss - 04 [WEB][6D0FF13A].mkv
  4. Format : Matroska
  5. Format version : Version 4 / Version 2
  6. File size : 684 MiB
  7. Duration : 23mn 40s
  8. Overall bit rate : 4 040 Kbps
  9. Encoded date : UTC 2017-07-28 21:53:06
  10. Writing application : mkvmerge v14.0.0 ('Flow') 64bit
  11. Writing library : libebml v1.3.4 + libmatroska v1.4.5
  12. Attachments : LT.TTF / LTFinnegan MediumItalic.ttf / maagkramp.ttf / playtime.ttf / Qlassik_TB.otf / Remains.ttf / Barmeno-Roman.ttf
  13.  
  14. Video
  15. ID : 1
  16. Format : AVC
  17. Format/Info : Advanced Video Codec
  18. Format profile : High 4:4:4 Predictive@L5
  19. Format settings, CABAC : Yes
  20. Format settings, ReFrames : 16 frames
  21. Codec ID : V_MPEG4/ISO/AVC
  22. Duration : 23mn 39s
  23. Bit rate : 3 812 Kbps
  24. Width : 1 600 pixels
  25. Height : 900 pixels
  26. Display aspect ratio : 16:9
  27. Frame rate mode : Constant
  28. Frame rate : 23.976 (24000/1001) fps
  29. Color space : YUV
  30. Chroma subsampling : 4:4:4
  31. Bit depth : 10 bits
  32. Scan type : Progressive
  33. Bits/(Pixel*Frame) : 0.110
  34. Stream size : 645 MiB (94%)
  35. Title : @Wakanim (WEB)
  36. Writing library : x264 core 152 r2851kMod ba24899
  37. Encoding settings : cabac=1 / ref=16 / deblock=1:-1:-1 / analyse=0x1:0x111 / me=umh / subme=10 / psy=1 / fade_compensate=0.00 / psy_rd=0.80:0.00 / mixed_ref=1 / me_range=32 / chroma_me=1 / trellis=2 / 8x8dct=0 / cqm=0 / deadzone=21,11 / fast_pskip=0 / chroma_qp_offset=1 / threads=24 / lookahead_threads=6 / sliced_threads=0 / nr=0 / decimate=0 / interlaced=0 / bluray_compat=0 / constrained_intra=0 / bframes=16 / b_pyramid=2 / b_adapt=2 / b_bias=0 / direct=3 / weightb=1 / open_gop=0 / weightp=2 / keyint=240 / keyint_min=24 / scenecut=40 / intra_refresh=0 / rc_lookahead=48 / rc=crf / mbtree=1 / crf=14.0000 / qcomp=0.70 / qpmin=0 / qpmax=81 / qpstep=4 / ip_ratio=1.40 / aq=3:0.85
  38. Language : Japanese
  39. Default : Yes
  40. Forced : Yes
  41. Color range : Limited
  42. Matrix coefficients : BT.709
  43.  
  44. Audio
  45. ID : 2
  46. Format : E-AC-3
  47. Format/Info : Audio Coding 3
  48. Format settings, Endianness : Big
  49. Codec ID : A_EAC3
  50. Duration : 23mn 40s
  51. Bit rate mode : Constant
  52. Bit rate : 224 Kbps
  53. Channel(s) : 2 channels
  54. Channel positions : Front: L R
  55. Sampling rate : 48.0 KHz
  56. Frame rate : 187.500 fps (256 spf)
  57. Compression mode : Lossy
  58. Stream size : 37.9 MiB (6%)
  59. Title : @Amazon (WEB)
  60. Language : Japanese
  61. Default : Yes
  62. Forced : No
  63.  
  64. Text
  65. ID : 3
  66. Format : ASS
  67. Codec ID : S_TEXT/ASS
  68. Codec ID/Info : Advanced Sub Station Alpha
  69. Duration : 23mn 38s
  70. Bit rate : 435 bps
  71. Count of elements : 383
  72. Compression mode : Lossless
  73. Stream size : 75.3 KiB (0%)
  74. Title : @Scum
  75. Language : English
  76. Default : Yes
  77. Forced : Yes
  78.  
  79. Menu
  80. 00:00:00.033 : en:Intro
  81. 00:00:40.430 : en:"Deep in Abyss" by Riko (CV:Miyu Tomita) and Regu (CV: Mariya Ise) (Opening)
  82. 00:02:09.980 : en:Part A
  83. 00:11:37.000 : en:Part B
  84. 00:21:59.960 : en:"Tabi no Hidarite, Saihate no Migite (旅の左手、最果ての右手)" by Riko (Miyu Tomita) and Nanachi (Shiori Izawa) (Ending)
  85. 00:23:29.970 : en:Preview
RAW Paste Data