Advertisement
layr

/tmp/remux-6eb7d319-df7b-4ab3-9df8-a16c5de2fc60.txt

Jun 26th, 2016
39
Never
Not a member of Pastebin yet? Sign Up, it unlocks many cool features!
  1. http://192.168.1.34:8096/videos/0f98ee4472e3693fcf2c10fab23faed8/stream.ts?Params=5ca63a5de70cdae4e5908e48a75c4c87;test;0f98ee4472e3693fcf2c10fab23faed8;false;h264;ac3;1;;19552000;448000;6;30;1920;1080;0;51;;;;;;;;0f98ee4472e3693fcf2c10fab23faed8;false;false;;
  2.  
  3. {"Protocol":"File","Id":"0f98ee4472e3693fcf2c10fab23faed8","Path":"/mnt/user/videos/movies/Cloverfield-(2008)/Cloverfield.MKV","Type":"Default","Container":"MKV","Name":"1080P/H264/TRUEHD","RunTimeTicks":50805440000,"ReadAtNativeFramerate":false,"SupportsTranscoding":true,"SupportsDirectStream":true,"SupportsDirectPlay":true,"RequiresOpening":false,"RequiresClosing":false,"VideoType":"VideoFile","MediaStreams":[{"Codec":"h264","NalLengthSize":"4","IsInterlaced":false,"BitRate":18660418,"BitDepth":8,"RefFrames":4,"IsDefault":true,"IsForced":false,"Height":1080,"Width":1920,"AverageFrameRate":23.97602,"RealFrameRate":23.97602,"Profile":"High","Type":"Video","AspectRatio":"16:9","Index":0,"IsExternal":false,"IsTextSubtitleStream":false,"SupportsExternalStream":false,"PixelFormat":"yuv420p","Level":41,"IsAnamorphic":false},{"Codec":"truehd","Language":"eng","DisplayTitle":"Eng TRUEHD 5.1 (D)","IsInterlaced":false,"ChannelLayout":"5.1","BitDepth":24,"Channels":6,"SampleRate":48000,"IsDefault":true,"IsForced":false,"Type":"Audio","Index":1,"IsExternal":false,"IsTextSubtitleStream":false,"SupportsExternalStream":false,"Level":0},{"Codec":"ac3","Language":"eng","DisplayTitle":"Eng Dolby Digital stereo","IsInterlaced":false,"ChannelLayout":"stereo","BitRate":192000,"Channels":2,"SampleRate":48000,"IsDefault":false,"IsForced":false,"Type":"Audio","Index":2,"IsExternal":false,"IsTextSubtitleStream":false,"SupportsExternalStream":false,"Level":0},{"Codec":"pgssub","Language":"dan","DisplayTitle":"dan pgssub","IsInterlaced":false,"IsDefault":false,"IsForced":false,"Type":"Subtitle","Index":3,"IsExternal":false,"IsTextSubtitleStream":false,"SupportsExternalStream":false,"Level":0},{"Codec":"pgssub","Language":"ger","DisplayTitle":"ger pgssub","IsInterlaced":false,"IsDefault":false,"IsForced":false,"Type":"Subtitle","Index":4,"IsExternal":false,"IsTextSubtitleStream":false,"SupportsExternalStream":false,"Level":0},{"Codec":"pgssub","Language":"gre","DisplayTitle":"gre pgssub","IsInterlaced":false,"IsDefault":false,"IsForced":false,"Type":"Subtitle","Index":5,"IsExternal":false,"IsTextSubtitleStream":false,"SupportsExternalStream":false,"Level":0},{"Codec":"pgssub","Language":"eng","DisplayTitle":"eng pgssub","IsInterlaced":false,"IsDefault":false,"IsForced":false,"Type":"Subtitle","Index":6,"IsExternal":false,"IsTextSubtitleStream":false,"SupportsExternalStream":false,"Level":0},{"Codec":"pgssub","Language":"eng","DisplayTitle":"eng pgssub","IsInterlaced":false,"IsDefault":false,"IsForced":false,"Type":"Subtitle","Index":7,"IsExternal":false,"IsTextSubtitleStream":false,"SupportsExternalStream":false,"Level":0},{"Codec":"pgssub","Language":"spa","DisplayTitle":"spa pgssub","IsInterlaced":false,"IsDefault":false,"IsForced":false,"Type":"Subtitle","Index":8,"IsExternal":false,"IsTextSubtitleStream":false,"SupportsExternalStream":false,"Level":0},{"Codec":"pgssub","Language":"fin","DisplayTitle":"fin pgssub","IsInterlaced":false,"IsDefault":false,"IsForced":false,"Type":"Subtitle","Index":9,"IsExternal":false,"IsTextSubtitleStream":false,"SupportsExternalStream":false,"Level":0},{"Codec":"pgssub","Language":"fre","DisplayTitle":"fre pgssub","IsInterlaced":false,"IsDefault":false,"IsForced":false,"Type":"Subtitle","Index":10,"IsExternal":false,"IsTextSubtitleStream":false,"SupportsExternalStream":false,"Level":0},{"Codec":"pgssub","Language":"hun","DisplayTitle":"hun pgssub","IsInterlaced":false,"IsDefault":false,"IsForced":false,"Type":"Subtitle","Index":11,"IsExternal":false,"IsTextSubtitleStream":false,"SupportsExternalStream":false,"Level":0},{"Codec":"pgssub","Language":"ita","DisplayTitle":"ita pgssub","IsInterlaced":false,"IsDefault":false,"IsForced":false,"Type":"Subtitle","Index":12,"IsExternal":false,"IsTextSubtitleStream":false,"SupportsExternalStream":false,"Level":0},{"Codec":"pgssub","Language":"dut","DisplayTitle":"dut pgssub","IsInterlaced":false,"IsDefault":false,"IsForced":false,"Type":"Subtitle","Index":13,"IsExternal":false,"IsTextSubtitleStream":false,"SupportsExternalStream":false,"Level":0},{"Codec":"pgssub","Language":"nor","DisplayTitle":"nor pgssub","IsInterlaced":false,"IsDefault":false,"IsForced":false,"Type":"Subtitle","Index":14,"IsExternal":false,"IsTextSubtitleStream":false,"SupportsExternalStream":false,"Level":0},{"Codec":"pgssub","Language":"pol","DisplayTitle":"pol pgssub","IsInterlaced":false,"IsDefault":false,"IsForced":false,"Type":"Subtitle","Index":15,"IsExternal":false,"IsTextSubtitleStream":false,"SupportsExternalStream":false,"Level":0},{"Codec":"pgssub","Language":"por","DisplayTitle":"por pgssub","IsInterlaced":false,"IsDefault":false,"IsForced":false,"Type":"Subtitle","Index":16,"IsExternal":false,"IsTextSubtitleStream":false,"SupportsExternalStream":false,"Level":0},{"Codec":"pgssub","Language":"swe","DisplayTitle":"swe pgssub","IsInterlaced":false,"IsDefault":false,"IsForced":false,"Type":"Subtitle","Index":17,"IsExternal":false,"IsTextSubtitleStream":false,"SupportsExternalStream":false,"Level":0},{"Codec":"pgssub","Language":"tur","DisplayTitle":"tur pgssub","IsInterlaced":false,"IsDefault":false,"IsForced":false,"Type":"Subtitle","Index":18,"IsExternal":false,"IsTextSubtitleStream":false,"SupportsExternalStream":false,"Level":0},{"Codec":"pgssub","Language":"ger","DisplayTitle":"ger pgssub","IsInterlaced":false,"IsDefault":false,"IsForced":false,"Type":"Subtitle","Index":19,"IsExternal":false,"IsTextSubtitleStream":false,"SupportsExternalStream":false,"Level":0},{"Codec":"pgssub","Language":"eng","DisplayTitle":"eng pgssub","IsInterlaced":false,"IsDefault":false,"IsForced":false,"Type":"Subtitle","Index":20,"IsExternal":false,"IsTextSubtitleStream":false,"SupportsExternalStream":false,"Level":0},{"Codec":"pgssub","Language":"spa","DisplayTitle":"spa pgssub","IsInterlaced":false,"IsDefault":false,"IsForced":false,"Type":"Subtitle","Index":21,"IsExternal":false,"IsTextSubtitleStream":false,"SupportsExternalStream":false,"Level":0},{"Codec":"pgssub","Language":"fre","DisplayTitle":"fre pgssub","IsInterlaced":false,"IsDefault":false,"IsForced":false,"Type":"Subtitle","Index":22,"IsExternal":false,"IsTextSubtitleStream":false,"SupportsExternalStream":false,"Level":0},{"Codec":"pgssub","Language":"ita","DisplayTitle":"ita pgssub","IsInterlaced":false,"IsDefault":false,"IsForced":false,"Type":"Subtitle","Index":23,"IsExternal":false,"IsTextSubtitleStream":false,"SupportsExternalStream":false,"Level":0},{"Codec":"pgssub","Language":"ger","DisplayTitle":"ger pgssub","IsInterlaced":false,"IsDefault":false,"IsForced":false,"Type":"Subtitle","Index":24,"IsExternal":false,"IsTextSubtitleStream":false,"SupportsExternalStream":false,"Level":0},{"Codec":"pgssub","Language":"spa","DisplayTitle":"spa pgssub","IsInterlaced":false,"IsDefault":false,"IsForced":false,"Type":"Subtitle","Index":25,"IsExternal":false,"IsTextSubtitleStream":false,"SupportsExternalStream":false,"Level":0},{"Codec":"pgssub","Language":"fre","DisplayTitle":"fre pgssub","IsInterlaced":false,"IsDefault":false,"IsForced":false,"Type":"Subtitle","Index":26,"IsExternal":false,"IsTextSubtitleStream":false,"SupportsExternalStream":false,"Level":0},{"Codec":"pgssub","Language":"ita","DisplayTitle":"ita pgssub","IsInterlaced":false,"IsDefault":false,"IsForced":false,"Type":"Subtitle","Index":27,"IsExternal":false,"IsTextSubtitleStream":false,"SupportsExternalStream":false,"Level":0}],"PlayableStreamFileNames":[],"Formats":[],"Bitrate":18660418,"RequiredHttpHeaders":{}}
  4.  
  5. /bin/ffmpeg -fflags +genpts -i file:"/mnt/user/videos/movies/Cloverfield-(2008)/Cloverfield.MKV" -map 0:0 -map 0:1 -map -0:s -codec:v:0 copy -bsf:v h264_mp4toannexb -map_metadata -1 -threads 0 -codec:a:0 ac3 -ac 6 -ab 448000 -af "aresample=async=1" -y "/config/transcoding-temp/103466b2751a425e87d662d708652815.ts"
  6.  
  7.  
  8. ffmpeg version 3.0.2-static http://johnvansickle.com/ffmpeg/ Copyright (c) 2000-2016 the FFmpeg developers
  9. built with gcc 5.3.1 (Debian 5.3.1-16) 20160424
  10. configuration: --enable-gpl --enable-version3 --enable-static --disable-debug --enable-libmp3lame --enable-libx264 --enable-libx265 --enable-libwebp --enable-libspeex --enable-libvorbis --enable-libvpx --enable-libfreetype --enable-fontconfig --enable-libxvid --enable-libopencore-amrnb --enable-libopencore-amrwb --enable-libtheora --enable-libvo-amrwbenc --enable-gray --enable-libopenjpeg --enable-libopus --enable-libass --enable-gnutls --enable-libvidstab --enable-libsoxr --enable-frei0r --enable-libfribidi --disable-indev=sndio --disable-outdev=sndio --enable-librtmp --enable-libmfx --enable-libzimg --cc=gcc
  11. libavutil 55. 17.103 / 55. 17.103
  12. libavcodec 57. 24.102 / 57. 24.102
  13. libavformat 57. 25.100 / 57. 25.100
  14. libavdevice 57. 0.101 / 57. 0.101
  15. libavfilter 6. 31.100 / 6. 31.100
  16. libswscale 4. 0.100 / 4. 0.100
  17. libswresample 2. 0.101 / 2. 0.101
  18. libpostproc 54. 0.100 / 54. 0.100
  19. [matroska,webm @ 0x3bc0280] Could not find codec parameters for stream 3 (Subtitle: hdmv_pgs_subtitle): unspecified size
  20. Consider increasing the value for the 'analyzeduration' and 'probesize' options
  21. [matroska,webm @ 0x3bc0280] Could not find codec parameters for stream 4 (Subtitle: hdmv_pgs_subtitle): unspecified size
  22. Consider increasing the value for the 'analyzeduration' and 'probesize' options
  23. [matroska,webm @ 0x3bc0280] Could not find codec parameters for stream 5 (Subtitle: hdmv_pgs_subtitle): unspecified size
  24. Consider increasing the value for the 'analyzeduration' and 'probesize' options
  25. [matroska,webm @ 0x3bc0280] Could not find codec parameters for stream 6 (Subtitle: hdmv_pgs_subtitle): unspecified size
  26. Consider increasing the value for the 'analyzeduration' and 'probesize' options
  27. [matroska,webm @ 0x3bc0280] Could not find codec parameters for stream 7 (Subtitle: hdmv_pgs_subtitle): unspecified size
  28. Consider increasing the value for the 'analyzeduration' and 'probesize' options
  29. [matroska,webm @ 0x3bc0280] Could not find codec parameters for stream 8 (Subtitle: hdmv_pgs_subtitle): unspecified size
  30. Consider increasing the value for the 'analyzeduration' and 'probesize' options
  31. [matroska,webm @ 0x3bc0280] Could not find codec parameters for stream 9 (Subtitle: hdmv_pgs_subtitle): unspecified size
  32. Consider increasing the value for the 'analyzeduration' and 'probesize' options
  33. [matroska,webm @ 0x3bc0280] Could not find codec parameters for stream 10 (Subtitle: hdmv_pgs_subtitle): unspecified size
  34. Consider increasing the value for the 'analyzeduration' and 'probesize' options
  35. [matroska,webm @ 0x3bc0280] Could not find codec parameters for stream 11 (Subtitle: hdmv_pgs_subtitle): unspecified size
  36. Consider increasing the value for the 'analyzeduration' and 'probesize' options
  37. [matroska,webm @ 0x3bc0280] Could not find codec parameters for stream 12 (Subtitle: hdmv_pgs_subtitle): unspecified size
  38. Consider increasing the value for the 'analyzeduration' and 'probesize' options
  39. [matroska,webm @ 0x3bc0280] Could not find codec parameters for stream 13 (Subtitle: hdmv_pgs_subtitle): unspecified size
  40. Consider increasing the value for the 'analyzeduration' and 'probesize' options
  41. [matroska,webm @ 0x3bc0280] Could not find codec parameters for stream 14 (Subtitle: hdmv_pgs_subtitle): unspecified size
  42. Consider increasing the value for the 'analyzeduration' and 'probesize' options
  43. [matroska,webm @ 0x3bc0280] Could not find codec parameters for stream 15 (Subtitle: hdmv_pgs_subtitle): unspecified size
  44. Consider increasing the value for the 'analyzeduration' and 'probesize' options
  45. [matroska,webm @ 0x3bc0280] Could not find codec parameters for stream 16 (Subtitle: hdmv_pgs_subtitle): unspecified size
  46. Consider increasing the value for the 'analyzeduration' and 'probesize' options
  47. [matroska,webm @ 0x3bc0280] Could not find codec parameters for stream 17 (Subtitle: hdmv_pgs_subtitle): unspecified size
  48. Consider increasing the value for the 'analyzeduration' and 'probesize' options
  49. [matroska,webm @ 0x3bc0280] Could not find codec parameters for stream 18 (Subtitle: hdmv_pgs_subtitle): unspecified size
  50. Consider increasing the value for the 'analyzeduration' and 'probesize' options
  51. [matroska,webm @ 0x3bc0280] Could not find codec parameters for stream 19 (Subtitle: hdmv_pgs_subtitle): unspecified size
  52. Consider increasing the value for the 'analyzeduration' and 'probesize' options
  53. [matroska,webm @ 0x3bc0280] Could not find codec parameters for stream 20 (Subtitle: hdmv_pgs_subtitle): unspecified size
  54. Consider increasing the value for the 'analyzeduration' and 'probesize' options
  55. [matroska,webm @ 0x3bc0280] Could not find codec parameters for stream 21 (Subtitle: hdmv_pgs_subtitle): unspecified size
  56. Consider increasing the value for the 'analyzeduration' and 'probesize' options
  57. [matroska,webm @ 0x3bc0280] Could not find codec parameters for stream 22 (Subtitle: hdmv_pgs_subtitle): unspecified size
  58. Consider increasing the value for the 'analyzeduration' and 'probesize' options
  59. [matroska,webm @ 0x3bc0280] Could not find codec parameters for stream 23 (Subtitle: hdmv_pgs_subtitle): unspecified size
  60. Consider increasing the value for the 'analyzeduration' and 'probesize' options
  61. [matroska,webm @ 0x3bc0280] Could not find codec parameters for stream 24 (Subtitle: hdmv_pgs_subtitle): unspecified size
  62. Consider increasing the value for the 'analyzeduration' and 'probesize' options
  63. [matroska,webm @ 0x3bc0280] Could not find codec parameters for stream 25 (Subtitle: hdmv_pgs_subtitle): unspecified size
  64. Consider increasing the value for the 'analyzeduration' and 'probesize' options
  65. [matroska,webm @ 0x3bc0280] Could not find codec parameters for stream 26 (Subtitle: hdmv_pgs_subtitle): unspecified size
  66. Consider increasing the value for the 'analyzeduration' and 'probesize' options
  67. [matroska,webm @ 0x3bc0280] Could not find codec parameters for stream 27 (Subtitle: hdmv_pgs_subtitle): unspecified size
  68. Consider increasing the value for the 'analyzeduration' and 'probesize' options
  69. Input #0, matroska,webm, from 'file:/mnt/user/videos/movies/Cloverfield-(2008)/Cloverfield.MKV':
  70. Metadata:
  71. encoder : libebml v1.3.0 + libmatroska v1.4.0
  72. creation_time : 2013-08-10 15:42:19
  73. Duration: 01:24:40.54, start: 0.000000, bitrate: 18660 kb/s
  74. Chapter #0:0: start 0.000000, end 303.469000
  75. Metadata:
  76. title : 00:00:00.000
  77. Chapter #0:1: start 303.469000, end 581.372000
  78. Metadata:
  79. title : 00:05:03.469
  80. Chapter #0:2: start 581.372000, end 902.359000
  81. Metadata:
  82. title : 00:09:41.372
  83. Chapter #0:3: start 902.359000, end 1165.831000
  84. Metadata:
  85. title : 00:15:02.359
  86. Chapter #0:4: start 1165.831000, end 1461.835000
  87. Metadata:
  88. title : 00:19:25.831
  89. Chapter #0:5: start 1461.835000, end 1762.719000
  90. Metadata:
  91. title : 00:24:21.835
  92. Chapter #0:6: start 1762.719000, end 2015.471000
  93. Metadata:
  94. title : 00:29:22.719
  95. Chapter #0:7: start 2015.471000, end 2182.638000
  96. Metadata:
  97. title : 00:33:35.471
  98. Chapter #0:8: start 2182.638000, end 2485.274000
  99. Metadata:
  100. title : 00:36:22.638
  101. Chapter #0:9: start 2485.274000, end 2728.434000
  102. Metadata:
  103. title : 00:41:25.274
  104. Chapter #0:10: start 2728.434000, end 2955.994000
  105. Metadata:
  106. title : 00:45:28.434
  107. Chapter #0:11: start 2955.994000, end 3214.544000
  108. Metadata:
  109. title : 00:49:15.994
  110. Chapter #0:12: start 3214.544000, end 3548.169000
  111. Metadata:
  112. title : 00:53:34.544
  113. Chapter #0:13: start 3548.169000, end 4015.553000
  114. Metadata:
  115. title : 00:59:08.169
  116. Chapter #0:14: start 4015.553000, end 4424.044000
  117. Metadata:
  118. title : 01:06:55.553
  119. Chapter #0:15: start 4424.044000, end 5080.544000
  120. Metadata:
  121. title : 01:13:44.044
  122. Stream #0:0: Video: h264 (High), yuv420p, 1920x1080, SAR 1:1 DAR 16:9, 23.98 fps, 23.98 tbr, 1k tbn, 47.95 tbc (default)
  123. Stream #0:1(eng): Audio: truehd, 48000 Hz, 5.1(side), s32 (24 bit) (default)
  124. Stream #0:2(eng): Audio: ac3, 48000 Hz, stereo, fltp, 192 kb/s
  125. Stream #0:3(dan): Subtitle: hdmv_pgs_subtitle
  126. Stream #0:4(ger): Subtitle: hdmv_pgs_subtitle
  127. Stream #0:5(gre): Subtitle: hdmv_pgs_subtitle
  128. Stream #0:6(eng): Subtitle: hdmv_pgs_subtitle
  129. Stream #0:7(eng): Subtitle: hdmv_pgs_subtitle
  130. Stream #0:8(spa): Subtitle: hdmv_pgs_subtitle
  131. Stream #0:9(fin): Subtitle: hdmv_pgs_subtitle
  132. Stream #0:10(fre): Subtitle: hdmv_pgs_subtitle
  133. Stream #0:11(hun): Subtitle: hdmv_pgs_subtitle
  134. Stream #0:12(ita): Subtitle: hdmv_pgs_subtitle
  135. Stream #0:13(dut): Subtitle: hdmv_pgs_subtitle
  136. Stream #0:14(nor): Subtitle: hdmv_pgs_subtitle
  137. Stream #0:15(pol): Subtitle: hdmv_pgs_subtitle
  138. Stream #0:16(por): Subtitle: hdmv_pgs_subtitle
  139. Stream #0:17(swe): Subtitle: hdmv_pgs_subtitle
  140. Stream #0:18(tur): Subtitle: hdmv_pgs_subtitle
  141. Stream #0:19(ger): Subtitle: hdmv_pgs_subtitle
  142. Stream #0:20(eng): Subtitle: hdmv_pgs_subtitle
  143. Stream #0:21(spa): Subtitle: hdmv_pgs_subtitle
  144. Stream #0:22(fre): Subtitle: hdmv_pgs_subtitle
  145. Stream #0:23(ita): Subtitle: hdmv_pgs_subtitle
  146. Stream #0:24(ger): Subtitle: hdmv_pgs_subtitle
  147. Stream #0:25(spa): Subtitle: hdmv_pgs_subtitle
  148. Stream #0:26(fre): Subtitle: hdmv_pgs_subtitle
  149. Stream #0:27(ita): Subtitle: hdmv_pgs_subtitle
  150. Output #0, mpegts, to '/config/transcoding-temp/103466b2751a425e87d662d708652815.ts':
  151. Metadata:
  152. encoder : Lavf57.25.100
  153. Chapter #0:0: start 0.000000, end 303.469000
  154. Chapter #0:1: start 303.469000, end 581.372000
  155. Chapter #0:2: start 581.372000, end 902.359000
  156. Chapter #0:3: start 902.359000, end 1165.831000
  157. Chapter #0:4: start 1165.831000, end 1461.835000
  158. Chapter #0:5: start 1461.835000, end 1762.719000
  159. Chapter #0:6: start 1762.719000, end 2015.471000
  160. Chapter #0:7: start 2015.471000, end 2182.638000
  161. Chapter #0:8: start 2182.638000, end 2485.274000
  162. Chapter #0:9: start 2485.274000, end 2728.434000
  163. Chapter #0:10: start 2728.434000, end 2955.994000
  164. Chapter #0:11: start 2955.994000, end 3214.544000
  165. Chapter #0:12: start 3214.544000, end 3548.169000
  166. Chapter #0:13: start 3548.169000, end 4015.553000
  167. Chapter #0:14: start 4015.553000, end 4424.044000
  168. Chapter #0:15: start 4424.044000, end 5080.544000
  169. Stream #0:0: Video: h264, yuv420p, 1920x1080 [SAR 1:1 DAR 16:9], q=2-31, 23.98 fps, 23.98 tbr, 90k tbn, 1k tbc (default)
  170. Stream #0:1: Audio: ac3, 48000 Hz, 5.1, fltp (24 bit), 448 kb/s (default)
  171. Metadata:
  172. encoder : Lavc57.24.102 ac3
  173. Stream mapping:
  174. Stream #0:0 -> #0:0 (copy)
  175. Stream #0:1 -> #0:1 (truehd (native) -> ac3 (native))
  176. Press [q] to stop, [?] for help
  177. frame= 578 fps=0.0 q=-1.0 size= 30132kB time=00:00:24.09 bitrate=10246.3kbits/s speed=48.2x
  178. frame= 1126 fps=1126 q=-1.0 size= 46660kB time=00:00:47.06 bitrate=8121.3kbits/s speed=47.1x
  179. frame= 1714 fps=1143 q=-1.0 size= 52368kB time=00:01:11.57 bitrate=5993.4kbits/s speed=47.7x
  180. frame= 2290 fps=1145 q=-1.0 size= 73778kB time=00:01:35.48 bitrate=6329.8kbits/s speed=47.7x
  181. frame= 2776 fps=1110 q=-1.0 size= 121250kB time=00:01:55.73 bitrate=8582.1kbits/s speed=46.3x
  182. frame= 3268 fps=1089 q=-1.0 size= 167814kB time=00:02:16.28 bitrate=10087.4kbits/s speed=45.4x
  183. frame= 3781 fps=1080 q=-1.0 size= 202298kB time=00:02:37.69 bitrate=10509.3kbits/s speed= 45x
  184. frame= 4289 fps=1072 q=-1.0 size= 230274kB time=00:02:58.84 bitrate=10547.8kbits/s speed=44.7x
  185. frame= 4787 fps=1064 q=-1.0 size= 258310kB time=00:03:19.61 bitrate=10601.0kbits/s speed=44.3x
  186. frame= 5280 fps=1056 q=-1.0 size= 288843kB time=00:03:40.21 bitrate=10744.8kbits/s speed= 44x
  187. frame= 5768 fps=1048 q=-1.0 size= 332098kB time=00:04:00.53 bitrate=11310.2kbits/s speed=43.7x
  188. frame= 6247 fps=1041 q=-1.0 size= 376852kB time=00:04:20.50 bitrate=11850.7kbits/s speed=43.4x
  189. frame= 6748 fps=1038 q=-1.0 size= 416198kB time=00:04:41.40 bitrate=12116.1kbits/s speed=43.3x
  190. frame= 7259 fps=1037 q=-1.0 size= 459876kB time=00:05:02.74 bitrate=12443.8kbits/s speed=43.2x
  191. frame= 7752 fps=1033 q=-1.0 size= 498789kB time=00:05:23.25 bitrate=12640.3kbits/s speed=43.1x
  192. frame= 8244 fps=1030 q=-1.0 size= 535415kB time=00:05:43.83 bitrate=12756.5kbits/s speed= 43x
  193. frame= 8753 fps=1030 q=-1.0 size= 571897kB time=00:06:05.01 bitrate=12834.9kbits/s speed=42.9x
  194. frame= 9182 fps=1020 q=-1.0 size= 640005kB time=00:06:22.93 bitrate=13691.3kbits/s speed=42.5x
  195. frame= 9268 fps=875 q=-1.0 size= 654521kB time=00:06:26.49 bitrate=13873.1kbits/s speed=36.5x
  196. frame= 9701 fps=875 q=-1.0 size= 720869kB time=00:06:44.57 bitrate=14596.6kbits/s speed=36.5x
  197. frame=10143 fps=875 q=-1.0 size= 784152kB time=00:07:03.00 bitrate=15186.1kbits/s speed=36.5x
  198. frame=10615 fps=878 q=-1.0 size= 838733kB time=00:07:22.71 bitrate=15519.9kbits/s speed=36.6x
  199. frame=11092 fps=881 q=-1.0 size= 877114kB time=00:07:42.58 bitrate=15532.9kbits/s speed=36.7x
  200. frame=11596 fps=886 q=-1.0 size= 912330kB time=00:08:03.64 bitrate=15453.2kbits/s speed= 37x
  201. frame=12075 fps=889 q=-1.0 size= 944180kB time=00:08:23.57 bitrate=15359.5kbits/s speed=37.1x
  202. frame=12606 fps=895 q=-1.0 size= 976239kB time=00:08:45.72 bitrate=15212.1kbits/s speed=37.3x
  203. frame=13105 fps=898 q=-1.0 size= 1004305kB time=00:09:06.52 bitrate=15053.8kbits/s speed=37.5x
  204. frame=13583 fps=900 q=-1.0 size= 1030098kB time=00:09:26.49 bitrate=14896.2kbits/s speed=37.5x
  205. frame=14049 fps=901 q=-1.0 size= 1061509kB time=00:09:45.91 bitrate=14841.6kbits/s speed=37.6x
  206. frame=14525 fps=903 q=-1.0 size= 1101324kB time=00:10:05.78 bitrate=14893.1kbits/s speed=37.7x
  207. frame=14986 fps=903 q=-1.0 size= 1142116kB time=00:10:25.01 bitrate=14969.5kbits/s speed=37.7x
  208. frame=15395 fps=901 q=-1.0 size= 1175420kB time=00:10:42.07 bitrate=14996.8kbits/s speed=37.6x
  209. frame=15862 fps=902 q=-1.0 size= 1216379kB time=00:11:01.53 bitrate=15062.9kbits/s speed=37.6x
  210. frame=16323 fps=902 q=-1.0 size= 1261258kB time=00:11:20.76 bitrate=15177.4kbits/s speed=37.6x
  211. frame=16763 fps=902 q=-1.0 size= 1313433kB time=00:11:39.13 bitrate=15390.0kbits/s speed=37.6x
  212. frame=17212 fps=902 q=-1.0 size= 1353872kB time=00:11:57.85 bitrate=15450.2kbits/s speed=37.6x
  213. frame=17687 fps=903 q=-1.0 size= 1395302kB time=00:12:17.62 bitrate=15496.1kbits/s speed=37.7x
  214. frame=18147 fps=903 q=-1.0 size= 1432665kB time=00:12:36.82 bitrate=15507.4kbits/s speed=37.7x
  215. frame=18607 fps=904 q=-1.0 size= 1466134kB time=00:12:56.02 bitrate=15477.0kbits/s speed=37.7x
  216. frame=19056 fps=904 q=-1.0 size= 1496034kB time=00:13:14.74 bitrate=15420.6kbits/s speed=37.7x
  217. frame=19519 fps=904 q=-1.0 size= 1526561kB time=00:13:34.07 bitrate=15361.7kbits/s speed=37.7x
  218. frame=19971 fps=904 q=-1.0 size= 1566457kB time=00:13:52.95 bitrate=15405.9kbits/s speed=37.7x
  219. frame=20425 fps=904 q=-1.0 size= 1607984kB time=00:14:11.89 bitrate=15462.6kbits/s speed=37.7x
  220. frame=20886 fps=905 q=-1.0 size= 1650589kB time=00:14:31.16 bitrate=15521.4kbits/s speed=37.7x
  221. frame=21345 fps=905 q=-1.0 size= 1696541kB time=00:14:50.20 bitrate=15612.2kbits/s speed=37.7x
  222. frame=21796 fps=905 q=-1.0 size= 1733235kB time=00:15:09.05 bitrate=15619.2kbits/s speed=37.7x
  223. frame=22244 fps=905 q=-1.0 size= 1775001kB time=00:15:27.70 bitrate=15673.9kbits/s speed=37.7x
  224. frame=22709 fps=905 q=-1.0 size= 1815640kB time=00:15:47.16 bitrate=15703.4kbits/s speed=37.8x
  225. frame=23171 fps=905 q=-1.0 size= 1847403kB time=00:16:06.39 bitrate=15660.2kbits/s speed=37.8x
  226. frame=23652 fps=907 q=-1.0 size= 1874580kB time=00:16:26.42 bitrate=15567.9kbits/s speed=37.8x
  227. frame=24100 fps=906 q=-1.0 size= 1913017kB time=00:16:45.11 bitrate=15591.7kbits/s speed=37.8x
  228. frame=24565 fps=907 q=-1.0 size= 1958851kB time=00:17:04.53 bitrate=15662.6kbits/s speed=37.8x
  229. frame=25038 fps=908 q=-1.0 size= 1987806kB time=00:17:24.25 bitrate=15594.1kbits/s speed=37.8x
  230. frame=25521 fps=909 q=-1.0 size= 2017476kB time=00:17:44.41 bitrate=15527.1kbits/s speed=37.9x
  231. frame=26024 fps=910 q=-1.0 size= 2041355kB time=00:18:05.37 bitrate=15407.4kbits/s speed= 38x
  232. frame=26519 fps=912 q=-1.0 size= 2065740kB time=00:18:26.13 bitrate=15298.7kbits/s speed= 38x
  233. frame=27006 fps=913 q=-1.0 size= 2102436kB time=00:18:46.33 bitrate=15291.4kbits/s speed=38.1x
  234. frame=27483 fps=913 q=-1.0 size= 2138738kB time=00:19:06.23 bitrate=15285.3kbits/s speed=38.1x
  235. frame=27991 fps=915 q=-1.0 size= 2173856kB time=00:19:27.45 bitrate=15253.9kbits/s speed=38.2x
  236. frame=28409 fps=914 q=-1.0 size= 2241035kB time=00:19:44.85 bitrate=15494.3kbits/s speed=38.1x
  237. frame=28814 fps=912 q=-1.0 size= 2307896kB time=00:20:01.75 bitrate=15732.2kbits/s speed= 38x
  238. frame=29253 fps=912 q=-1.0 size= 2355845kB time=00:20:20.05 bitrate=15818.2kbits/s speed= 38x
  239. frame=29690 fps=911 q=-1.0 size= 2406768kB time=00:20:38.29 bitrate=15922.0kbits/s speed= 38x
  240. frame=30157 fps=911 q=-1.0 size= 2437695kB time=00:20:57.75 bitrate=15877.2kbits/s speed= 38x
  241. frame=30657 fps=913 q=-1.0 size= 2468748kB time=00:21:18.58 bitrate=15817.5kbits/s speed=38.1x
  242. frame=31149 fps=914 q=-1.0 size= 2494610kB time=00:21:39.16 bitrate=15730.0kbits/s speed=38.1x
  243. frame=31633 fps=915 q=-1.0 size= 2518231kB time=00:21:59.35 bitrate=15635.9kbits/s speed=38.1x
  244. frame=32144 fps=916 q=-1.0 size= 2537827kB time=00:22:20.66 bitrate=15507.1kbits/s speed=38.2x
  245. frame=32633 fps=917 q=-1.0 size= 2561783kB time=00:22:41.01 bitrate=15419.4kbits/s speed=38.2x
  246. frame=33124 fps=918 q=-1.0 size= 2586612kB time=00:23:01.49 bitrate=15338.1kbits/s speed=38.3x
  247. frame=33619 fps=919 q=-1.0 size= 2615457kB time=00:23:22.13 bitrate=15280.8kbits/s speed=38.3x
  248. frame=34092 fps=919 q=-1.0 size= 2658556kB time=00:23:41.88 bitrate=15316.9kbits/s speed=38.3x
  249. frame=34587 fps=920 q=-1.0 size= 2689558kB time=00:24:02.55 bitrate=15273.5kbits/s speed=38.4x
  250. frame=35079 fps=921 q=-1.0 size= 2718859kB time=00:24:23.06 bitrate=15223.4kbits/s speed=38.4x
  251. frame=35546 fps=921 q=-1.0 size= 2764553kB time=00:24:42.52 bitrate=15276.1kbits/s speed=38.4x
  252. frame=35988 fps=921 q=-1.0 size= 2828126kB time=00:25:00.98 bitrate=15435.2kbits/s speed=38.4x
  253. frame=36452 fps=921 q=-1.0 size= 2877319kB time=00:25:20.31 bitrate=15504.0kbits/s speed=38.4x
  254. frame=36924 fps=921 q=-1.0 size= 2922440kB time=00:25:39.99 bitrate=15545.9kbits/s speed=38.4x
  255. frame=37384 fps=921 q=-1.0 size= 2968838kB time=00:25:59.19 bitrate=15598.3kbits/s speed=38.4x
  256. frame=37837 fps=921 q=-1.0 size= 3023436kB time=00:26:18.04 bitrate=15695.4kbits/s speed=38.4x
  257. frame=38268 fps=920 q=-1.0 size= 3090023kB time=00:26:36.02 bitrate=15860.3kbits/s speed=38.4x
  258. frame=38722 fps=920 q=-1.0 size= 3132285kB time=00:26:55.00 bitrate=15888.3kbits/s speed=38.4x
  259. frame=39214 fps=921 q=-1.0 size= 3154661kB time=00:27:15.48 bitrate=15801.4kbits/s speed=38.4x
  260. frame=39725 fps=922 q=-1.0 size= 3174142kB time=00:27:36.82 bitrate=15694.2kbits/s speed=38.4x
  261. frame=40207 fps=922 q=-1.0 size= 3198056kB time=00:27:56.92 bitrate=15622.9kbits/s speed=38.5x
  262. frame=40664 fps=922 q=-1.0 size= 3239465kB time=00:28:15.99 bitrate=15647.3kbits/s speed=38.5x
  263. frame=40968 fps=828 q=-1.0 size= 3266906kB time=00:28:28.63 bitrate=15663.1kbits/s speed=34.5x
  264. frame=41419 fps=829 q=-1.0 size= 3297913kB time=00:28:47.45 bitrate=15639.5kbits/s speed=34.6x
  265. frame=41878 fps=830 q=-1.0 size= 3330931kB time=00:29:06.65 bitrate=15622.5kbits/s speed=34.6x
  266. frame=42336 fps=831 q=-1.0 size= 3370532kB time=00:29:25.72 bitrate=15637.4kbits/s speed=34.6x
  267. frame=42801 fps=832 q=-1.0 size= 3416841kB time=00:29:45.11 bitrate=15680.1kbits/s speed=34.7x
  268. frame=43267 fps=833 q=-1.0 size= 3462406kB time=00:30:04.57 bitrate=15717.9kbits/s speed=34.7x
  269. frame=43735 fps=834 q=-1.0 size= 3507567kB time=00:30:24.05 bitrate=15752.8kbits/s speed=34.8x
  270. frame=44192 fps=834 q=-1.0 size= 3549198kB time=00:30:43.13 bitrate=15774.8kbits/s speed=34.8x
  271. frame=44687 fps=836 q=-1.0 size= 3583057kB time=00:31:03.77 bitrate=15748.9kbits/s speed=34.9x
  272. frame=45185 fps=837 q=-1.0 size= 3605743kB time=00:31:24.57 bitrate=15673.7kbits/s speed=34.9x
  273. frame=45650 fps=838 q=-1.0 size= 3640176kB time=00:31:43.93 bitrate=15662.5kbits/s speed= 35x
  274. frame=46115 fps=839 q=-1.0 size= 3678891kB time=00:32:03.32 bitrate=15669.5kbits/s speed= 35x
  275. frame=46628 fps=841 q=-1.0 size= 3703811kB time=00:32:24.73 bitrate=15602.0kbits/s speed=35.1x
  276. frame=47107 fps=842 q=-1.0 size= 3735643kB time=00:32:44.69 bitrate=15576.1kbits/s speed=35.1x
  277. frame=47594 fps=843 q=-1.0 size= 3770774kB time=00:33:05.01 bitrate=15561.7kbits/s speed=35.2x
  278. frame=48096 fps=844 q=-1.0 size= 3799316kB time=00:33:26.01 bitrate=15515.4kbits/s speed=35.2x
  279. frame=48537 fps=845 q=-1.0 size= 3850786kB time=00:33:44.34 bitrate=15583.1kbits/s speed=35.2x
  280. frame=48891 fps=843 q=-1.0 size= 3911200kB time=00:33:59.13 bitrate=15712.8kbits/s speed=35.2x
Advertisement
RAW Paste Data Copied
Advertisement