Interfilm

Untitled

Jun 7th, 2014
208
Never
Not a member of Pastebin yet? Sign Up, it unlocks many cool features!
  1. Общее
  2. Venus.in.Fur.2013.Blu.Ray.1080p.CINEMANIA.mkv
  3. Формат : Matroska
  4. Версия формата : Version 4 / Version 2
  5. Размер файла : 9,97 Гбайт
  6. Продолжительность : 1 ч. 36 м.
  7. Общий поток : 14,8 Мбит/сек
  8. Название фильма : Release Group CINEMANIA
  9. Дата кодирования : UTC 2014-06-07 16:11:20
  10. Программа кодирования : mkvmerge v6.9.1 ('Blue Panther') 64bit built on Apr 18 2014 18:23:38
  11. Библиотека кодирования : libebml v1.3.0 + libmatroska v1.4.1
  12.  
  13. Видео
  14. Идентификатор : 1
  15. Формат : AVC
  16. Формат/Информация : Advanced Video Codec
  17. Профиль формата : High@L4.1
  18. Параметр CABAC формата : Да
  19. Параметр ReFrames формата : 5 кадров
  20. Идентификатор кодека : V_MPEG4/ISO/AVC
  21. Продолжительность : 1 ч. 36 м.
  22. Битрейт : 10,9 Мбит/сек
  23. Ширина : 1920 пикселей
  24. Высота : 804 пикселя
  25. Соотношение сторон : 2,40:1
  26. Режим частоты кадров : Постоянный
  27. Частота кадров : 23,976 кадра/сек
  28. Цветовое пространство : YUV
  29. Субдискретизация насыщенности : 4:2:0
  30. Битовая глубина : 8 бит
  31. Тип развёртки : Прогрессивная
  32. Бит/(Пиксели*Кадры) : 0.294
  33. Размер потока : 7,14 Гбайт (72%)
  34. Заголовок : Release Group CINEMANIA
  35. Библиотека кодирования : x264 core 140 r2377 1ca7bb9
  36. Настройки программы : cabac=1 / ref=5 / deblock=1:-3:-3 / analyse=0x3:0x113 / me=umh / subme=11 / psy=1 / psy_rd=0.95:0.20 / mixed_ref=1 / me_range=64 / chroma_me=1 / trellis=2 / 8x8dct=1 / cqm=0 / deadzone=6,6 / fast_pskip=0 / chroma_qp_offset=-3 / threads=24 / lookahead_threads=2 / sliced_threads=0 / nr=0 / decimate=0 / interlaced=0 / bluray_compat=0 / constrained_intra=0 / bframes=5 / b_pyramid=2 / b_adapt=2 / b_bias=0 / direct=3 / weightb=1 / open_gop=1 / weightp=2 / keyint=240 / keyint_min=22 / scenecut=40 / intra_refresh=0 / rc_lookahead=240 / rc=2pass / mbtree=1 / bitrate=10888 / ratetol=1.0 / qcomp=0.60 / qpmin=0 / qpmax=69 / qpstep=4 / cplxblur=20.0 / qblur=0.5 / vbv_maxrate=50000 / vbv_bufsize=50000 / nal_hrd=none / filler=0 / ip_ratio=1.40 / aq=2:0.90
  37. Язык : French
  38. Default : Да
  39. Forced : Да
  40. Основные цвета : BT.709
  41. Характеристики трансфера : BT.709
  42. Коэффициенты матрицы : BT.709
  43.  
  44. Аудио #1
  45. Идентификатор : 2
  46. Формат : AC-3
  47. Формат/Информация : Audio Coding 3
  48. Расширение режима : CM (complete main)
  49. Параметр Endianness формата : Big
  50. Идентификатор кодека : A_AC3
  51. Продолжительность : 1 ч. 36 м.
  52. Вид битрейта : Постоянный
  53. Битрейт : 448 Кбит/сек
  54. Каналы : 6 каналов
  55. Расположение каналов : Front: L C R, Side: L R, LFE
  56. Частота : 48,0 КГц
  57. Битовая глубина : 16 бит
  58. Метод сжатия : С потерями
  59. Размер потока : 309 Мбайт (3%)
  60. Заголовок : Дубляж (Чистый Звук)
  61. Язык : Russian
  62. Default : Да
  63. Forced : Да
  64.  
  65. Аудио #2
  66. Идентификатор : 3
  67. Формат : DTS
  68. Формат/Информация : Digital Theater Systems
  69. Режим : 16
  70. Параметр Endianness формата : Big
  71. Идентификатор кодека : A_DTS
  72. Продолжительность : 1 ч. 36 м.
  73. Вид битрейта : Постоянный
  74. Битрейт : 1509 Кбит/сек
  75. Каналы : 6 каналов
  76. Расположение каналов : Front: L C R, Side: L R, LFE
  77. Частота : 48,0 КГц
  78. Битовая глубина : 24 бит
  79. Метод сжатия : С потерями
  80. Размер потока : 1,02 Гбайт (10%)
  81. Заголовок : А.Матвеев
  82. Язык : Russian
  83. Default : Нет
  84. Forced : Нет
  85.  
  86. Аудио #3
  87. Идентификатор : 4
  88. Формат : AC-3
  89. Формат/Информация : Audio Coding 3
  90. Расширение режима : CM (complete main)
  91. Параметр Endianness формата : Big
  92. Идентификатор кодека : A_AC3
  93. Продолжительность : 1 ч. 36 м.
  94. Вид битрейта : Постоянный
  95. Битрейт : 448 Кбит/сек
  96. Каналы : 6 каналов
  97. Расположение каналов : Front: L C R, Side: L R, LFE
  98. Частота : 48,0 КГц
  99. Битовая глубина : 16 бит
  100. Метод сжатия : С потерями
  101. Размер потока : 309 Мбайт (3%)
  102. Заголовок : А.Матвеев
  103. Язык : Russian
  104. Default : Нет
  105. Forced : Нет
  106.  
  107. Аудио #4
  108. Идентификатор : 5
  109. Формат : DTS
  110. Формат/Информация : Digital Theater Systems
  111. Режим : 16
  112. Параметр Endianness формата : Big
  113. Идентификатор кодека : A_DTS
  114. Продолжительность : 1 ч. 36 м.
  115. Вид битрейта : Постоянный
  116. Битрейт : 1509 Кбит/сек
  117. Каналы : 6 каналов
  118. Расположение каналов : Front: L C R, Side: L R, LFE
  119. Частота : 48,0 КГц
  120. Битовая глубина : 16 бит
  121. Метод сжатия : С потерями
  122. Размер потока : 1,02 Гбайт (10%)
  123. Язык : French
  124. Default : Нет
  125. Forced : Нет
  126.  
  127. Текст #1
  128. Идентификатор : 6
  129. Формат : UTF-8
  130. Идентификатор кодека : S_TEXT/UTF8
  131. Идентификатор кодека/Информация : UTF-8 Plain Text
  132. Заголовок : notabenoid
  133. Язык : Russian
  134. Default : Нет
  135. Forced : Нет
  136.  
  137. Текст #2
  138. Идентификатор : 7
  139. Формат : UTF-8
  140. Идентификатор кодека : S_TEXT/UTF8
  141. Идентификатор кодека/Информация : UTF-8 Plain Text
  142. Язык : English
  143. Default : Нет
  144. Forced : Нет
  145.  
  146. Меню
  147. 00:00:00.000 : fr:Chapitre 01
  148. 00:20:57.465 : fr:Chapitre 02
  149. 00:30:22.362 : fr:Chapitre 03
  150. 00:43:02.079 : fr:Chapitre 04
  151. 01:00:26.832 : fr:Chapitre 05
  152. 01:14:05.775 : fr:Chapitre 06
  153. 01:22:36.660 : fr:Chapitre 07
  154. 01:29:51.511 : fr:Chapitre 08
RAW Paste Data